公寓大楼里的谋杀案 (2021) / 第一季全10集 / 4K高清下载

[复制链接]

52

主题

59

帖子

602

积分

版主

Rank: 7Rank: 7Rank: 7

积分
602
 楼主| 发表于 2021-10-19 20:43:23 | 显示全部楼层 |阅读模式
p2662287483_副本.jpg

◎译  名 公寓大楼里的谋杀案 / 内有谋杀 / 此楼专属谋杀案 / 大楼里唯一的谋杀案 / 大楼里只有谋杀 / 大楼里的谋杀
◎片  名 Only Murders in the Building
◎年  代 2021
◎产  地 美国
◎类  别 剧情 / 喜剧 / 悬疑 / 惊悚 / 犯罪
◎语  言 英语
◎上映日期 2021-08-31(美国)
◎IMDb评分  8.3/10 from 23511 users
◎IMDb链接  https://www.imdb.com/title/tt12851524/
◎豆瓣评分 8.1/10 from 4701 users
◎豆瓣链接 https://movie.douban.com/subject/35169965/
◎集  数 10
◎导  演 詹米·巴比特 / 雪梨·道比什 / 吉莉安·罗伯斯比尔 / 唐·斯卡尔蒂诺
◎编  剧 约翰·霍夫曼 / 史蒂夫·马丁
◎主  演 赛琳娜·戈麦斯
                   史蒂夫·马丁
                   马丁·肖特
                   亚伦·多明格斯
                   瓦妮莎·阿斯皮利亚加
                   迈克尔·西里尔·克赖顿
                   Lylan Carson
                   Olivia Reis
                   埃斯特班·贝尼托
                   拉塞尔·G·琼斯
                   Adina Verson
                   泰迪·库卢卡
                   昆西·杜恩-巴克
                   梅雷迪思·霍尔兹曼
                   内森·连恩 / 艾米·莱安
                   斯汀
                   希瑟·艾希礼·蔡斯
                   Adam DeCarlo
                   Jonathan Burke
                   Ryan Broussard




◎简  介


         该剧由著名笑匠史蒂夫·马丁和约翰·霍夫曼(《同妻俱乐部》) 联合创作,讲述三个对真实犯罪有着共同痴迷的陌生人突然发现自己被卷入其中的故事。
General
Complete name                  : H:\Only.Murders.in.the.Building.S01E01.True.Crime.2160p.HULU.WEB-DL.DDP5.1.H.265-FLUX.mkv
Format                         : Matroska
Format version                 : Version 4
File size                      : 3.44 GiB
Duration                       : 33 min 16 s
Overall bit rate               : 14.8 Mb/s
Encoded date                   : UTC 2021-09-02 03:27:38
Writing application            : mkvmerge v59.0.0 ('Shining Star') 64-bit
Writing library                : libebml v1.4.2 + libmatroska v1.6.4
IsTruncated                    : Yes

Video
ID                             : 1
Format                         : HEVC
Format/Info                    : High Efficiency Video Coding
Format profile                 : Main 10@L5.1@Main
Codec ID                       : V_MPEGH/ISO/HEVC
Duration                       : 33 min 16 s
Bit rate                       : 14.2 Mb/s
Width                          : 3 840 pixels
Height                         : 2 160 pixels
Display aspect ratio           : 16:9
Frame rate mode                : Constant
Frame rate                     : 23.976 (24000/1001) FPS
Color space                    : YUV
Chroma subsampling             : 4:2:0
Bit depth                      : 10 bits
Bits/(Pixel*Frame)             : 0.072
Stream size                    : 3.31 GiB (96%)
Default                        : Yes
Forced                         : No

Audio
ID                             : 2
Format                         : E-AC-3
Format/Info                    : Enhanced AC-3
Commercial name                : Dolby Digital Plus
Codec ID                       : A_EAC3
Duration                       : 33 min 16 s
Bit rate mode                  : Constant
Bit rate                       : 256 kb/s
Channel(s)                     : 6 channels
Channel layout                 : L R C LFE Ls Rs
Sampling rate                  : 48.0 kHz
Frame rate                     : 31.250 FPS (1536 SPF)
Compression mode               : Lossy
Stream size                    : 60.9 MiB (2%)
Language                       : English
Service kind                   : Complete Main
Default                        : Yes
Forced                         : No

Text #1
ID                             : 3
Format                         : UTF-8
Codec ID                       : S_TEXT/UTF8
Codec ID/Info                  : UTF-8 Plain Text
Language                       : English
Default                        : No
Forced                         : No

Text #2
ID                             : 4
Format                         : UTF-8
Codec ID                       : S_TEXT/UTF8
Codec ID/Info                  : UTF-8 Plain Text
Title                          : SDH
Language                       : English
Default                        : No
Forced                         : No

Text #3
ID                             : 5
Format                         : UTF-8
Codec ID                       : S_TEXT/UTF8
Codec ID/Info                  : UTF-8 Plain Text
Title                          : SDH
Language                       : Spanish
Default                        : No
Forced                         : No

Menu
00:05:07.000                   : Chapter 1
00:16:06.000                   : Chapter 2
00:27:28.000                   : Chapter 3
00:32:18.000                   : Chapter 4 - Credits
下载地址

游客,如果您要查看本帖隐藏内容请回复


游客,如果您要查看本帖隐藏内容请回复






上一篇:耶路撒冷地 / Chapelwaite (2021) / 第一季全10集 / 4K高清下载
下一篇:直言真相(内嵌简繁中字)(2021) / 第二季全10集 / 4K高清下载
回复

使用道具 举报

3

主题

1298

帖子

3918

积分

4K家园VIP

Rank: 9Rank: 9Rank: 9

积分
3918
发表于 2021-10-19 20:43:52 | 显示全部楼层
高手云集 果断围观
回复 支持 反对

使用道具 举报

0

主题

3

帖子

12

积分

新手上路

Rank: 1

积分
12
发表于 2021-10-19 21:39:28 | 显示全部楼层
坚决支持
回复

使用道具 举报

0

主题

6576

帖子

1万

积分

4K家园VIP

Rank: 9Rank: 9Rank: 9

积分
15360
发表于 2021-10-19 22:19:02 | 显示全部楼层
太好啦&萬分感謝版主的無私發佈分享%
回复 支持 反对

使用道具 举报

3

主题

1344

帖子

3862

积分

4K家园VIP

Rank: 9Rank: 9Rank: 9

积分
3862
发表于 2021-10-19 23:00:13 | 显示全部楼层
啊啊啊啊啊啊啊啊啊啊啊
回复 支持 反对

使用道具 举报

1

主题

1269

帖子

3623

积分

4K家园VIP

Rank: 9Rank: 9Rank: 9

积分
3623
发表于 2021-10-20 00:14:34 来自手机 | 显示全部楼层
秀起来~
回复 支持 反对

使用道具 举报

0

主题

1268

帖子

3824

积分

4K家园VIP

Rank: 9Rank: 9Rank: 9

积分
3824
发表于 2021-10-20 08:23:45 | 显示全部楼层
我也顶起出售广告位
回复 支持 反对

使用道具 举报

1

主题

1384

帖子

3986

积分

中级会员

Rank: 4

积分
3986
发表于 2021-10-20 09:51:30 来自手机 | 显示全部楼层
顶起出售广告位
回复 支持 反对

使用道具 举报

您需要登录后才可以回帖 登录 | 立即注册

本版积分规则

精彩图文
Archiver|手机版|TAG|Sitemap|新帖|专题|联系我们:邮箱: 4kjia.com@gmail.com   

4k家园   ©2019