直言真相(内嵌简繁中字)(2021) / 第二季全10集 / 4K高清下载

[复制链接]

52

主题

59

帖子

602

积分

版主

Rank: 7Rank: 7Rank: 7

积分
602
 楼主| 发表于 2021-10-23 18:38:29 | 显示全部楼层 |阅读模式
本帖最后由 美剧小虾 于 2021-10-24 20:49 编辑

p2677025324_副本.png

◎译  名 直言真相 第二季/你睡着了吗/你在睡觉吗?/真相大白(港)/Are You Sleeping
◎片  名 Truth Be Told Season 2
◎年  代 2021
◎产  地 美国
◎类  别 剧情/惊悚/犯罪
◎语  言 英语
◎上映日期 2021-08-20(美国)
◎IMDb评分  7.1/10 from 9634 users
◎IMDb链接  https://www.imdb.com/title/tt7821582/
◎豆瓣评分 /10 from 0 users
◎豆瓣链接 https://douban.com/subject/34986400/
◎导  演 米凯尔·诺加德 Mikkel Nørgaard
◎编  剧 尼切尔·D·特兰布尔 Nichelle D. Tramble
◎主  演 奥克塔维亚·斯宾瑟 Octavia Spencer
       凯特·哈德森 Kate Hudson
       里克·E.安德森 Rico E. Anderson
       哈尔·阿普尔曼 Hale Appleman
       克里斯托弗·巴库斯 Christopher Backus
       安东尼·李·梅迪纳 Anthony Lee Medina
       杰森·奥玛拉 Jason O'Mara
       阿隆娜·塔尔 Alona Tal
       Brett Lapeyrouse
       克兰斯顿·约翰逊 Cranston Johnson
       凯丽·丹妮尔斯 Keli Daniels



◎简  介


  虽然影评不佳,但Apple TV+的限定剧《#真相大白# Truth Be Told》仍然获宣布续订第二季。在新季中播客主Poppy Parnell(Octavia Spencer饰)将会去调查另一宗案件。
General
Complete name                  : H:\Truth.Be.Told.2019.S02E01.Other.Peoples.Tears.Are.Only.Water.2160p.ATVP.WEB-DL.DDP5.1.Atmos.DV.MP4.x265-DVSUX.mp4
Format                         : MPEG-4
Format profile                 : Base Media / Version 2
Codec ID                       : mp42 (isom/mp42/dby1)
File size                      : 6.03 GiB
Duration                       : 51 min 21 s
Overall bit rate mode          : Variable
Overall bit rate               : 16.8 Mb/s
Encoded date                   : UTC 2021-10-22 08:17:23
Tagged date                    : UTC 2021-10-22 08:17:23
IsTruncated                    : Yes

Video
ID                             : 1
Format                         : HEVC
Format/Info                    : High Efficiency Video Coding
Format profile                 : Main 10@L5@High
HDR format                     : Dolby Vision, Version 1.0, dvhe.05.06, BL+RPU
Codec ID                       : dvhe
Codec ID/Info                  : High Efficiency Video Coding with Dolby Vision
Duration                       : 51 min 21 s
Bit rate                       : 24.3 Mb/s
Width                          : 3 840 pixels
Height                         : 1 920 pixels
Display aspect ratio           : 2.000
Frame rate mode                : Constant
Frame rate                     : 23.976 (24000/1001) FPS
Color space                    : YUV
Chroma subsampling             : 4:2:0
Bit depth                      : 10 bits
Bits/(Pixel*Frame)             : 0.137
Stream size                    : 8.72 GiB
Default                        : Yes
Alternate group                : 1
Encoded date                   : UTC 2021-10-22 08:16:48
Tagged date                    : UTC 2021-10-22 08:17:43
Codec configuration box        : hvcC+dvcC

Audio
ID                             : 2
Format                         : E-AC-3 JOC
Format/Info                    : Enhanced AC-3 with Joint Object Coding
Commercial name                : Dolby Digital Plus with Dolby Atmos
Codec ID                       : ec-3
Duration                       : 51 min 21 s
Bit rate mode                  : Constant
Bit rate                       : 768 kb/s
Maximum bit rate               : 811 kb/s
Channel(s)                     : 6 channels
Channel layout                 : L R C LFE Ls Rs
Sampling rate                  : 48.0 kHz
Frame rate                     : 31.250 FPS (1536 SPF)
Compression mode               : Lossy
Stream size                    : 282 MiB (5%)
Title                          : English
Language                       : English
Service kind                   : Complete Main
Default                        : Yes
Alternate group                : 1
Tagged date                    : UTC 2021-10-22 08:17:43
Complexity index               : Not present / 16
Number of dynamic objects      : 15
Bed channel count              : 1 channel
Bed channel configuration      : LFE

Text #1
ID                             : 3
Format                         : Timed Text
Codec ID                       : tx3g
Duration                       : 51 min 3 s
Bit rate mode                  : Variable
Bit rate                       : 68 b/s
Stream size                    : 25.3 KiB (0%)
Title                          : English
Language                       : English
Forced                         : No
Encoded date                   : UTC 2021-10-22 08:17:40
Tagged date                    : UTC 2021-10-22 08:17:43

Text #2
ID                             : 4
Format                         : Timed Text
Codec ID                       : tx3g
Duration                       : 49 min 15 s
Bit rate mode                  : Variable
Bit rate                       : 59 b/s
Stream size                    : 21.2 KiB (0%)
Title                          : English
Language                       : English
Forced                         : No
Encoded date                   : UTC 2021-10-22 08:17:40
Tagged date                    : UTC 2021-10-22 08:17:43

Text #3
ID                             : 5
Format                         : Timed Text
Codec ID                       : tx3g
Duration                       : 51 min 19 s
Bit rate mode                  : Variable
Bit rate                       : 79 b/s
Stream size                    : 29.8 KiB (0%)
Title                          : Arabic
Language                       : Arabic
Forced                         : No
Encoded date                   : UTC 2021-10-22 08:17:41
Tagged date                    : UTC 2021-10-22 08:17:43

Text #4
ID                             : 6
Format                         : Timed Text
Codec ID                       : tx3g
Duration                       : 51 min 19 s
Bit rate mode                  : Variable
Bit rate                       : 85 b/s
Stream size                    : 32.1 KiB (0%)
Title                          : Bulgarian
Language                       : Bulgarian
Forced                         : No
Encoded date                   : UTC 2021-10-22 08:17:41
Tagged date                    : UTC 2021-10-22 08:17:43

Text #5
ID                             : 7
Format                         : Timed Text
Codec ID                       : tx3g
Duration                       : 51 min 19 s
Bit rate mode                  : Variable
Bit rate                       : 52 b/s
Stream size                    : 19.7 KiB (0%)
Title                          : 中文-广东话
Language                       : 中文
Forced                         : No
Encoded date                   : UTC 2021-10-22 08:17:41
Tagged date                    : UTC 2021-10-22 08:17:43

Text #6
ID                             : 8
Format                         : Timed Text
Codec ID                       : tx3g
Duration                       : 51 min 19 s
Bit rate mode                  : Variable
Bit rate                       : 53 b/s
Stream size                    : 20.1 KiB (0%)
Title                          : 中文-简体
Language                       : 中文
Forced                         : No
Encoded date                   : UTC 2021-10-22 08:17:41
Tagged date                    : UTC 2021-10-22 08:17:43

Text #7
ID                             : 9
Format                         : Timed Text
Codec ID                       : tx3g
Duration                       : 51 min 19 s
Bit rate mode                  : Variable
Bit rate                       : 54 b/s
Stream size                    : 20.2 KiB (0%)
Title                          : 中文-繁体
Language                       : 中文
Forced                         : No
Encoded date                   : UTC 2021-10-22 08:17:41
Tagged date                    : UTC 2021-10-22 08:17:43


Text #8
ID                             : 10
Format                         : Timed Text
Codec ID                       : tx3g
Duration                       : 51 min 19 s
Bit rate mode                  : Variable
Bit rate                       : 51 b/s
Stream size                    : 19.1 KiB (0%)
Title                          : Czech
Language                       : Czech
Forced                         : No
Encoded date                   : UTC 2021-10-22 08:17:41
Tagged date                    : UTC 2021-10-22 08:17:43

Text #9
ID                             : 11
Format                         : Timed Text
Codec ID                       : tx3g
Duration                       : 51 min 19 s
Bit rate mode                  : Variable
Bit rate                       : 51 b/s
Stream size                    : 19.0 KiB (0%)
Title                          : Dutch
Language                       : Dutch
Forced                         : No
Encoded date                   : UTC 2021-10-22 08:17:41
Tagged date                    : UTC 2021-10-22 08:17:43

Text #10
ID                             : 12
Format                         : Timed Text
Codec ID                       : tx3g
Duration                       : 51 min 19 s
Bit rate mode                  : Variable
Bit rate                       : 52 b/s
Stream size                    : 19.5 KiB (0%)
Title                          : Estonian
Language                       : Estonian
Forced                         : No
Encoded date                   : UTC 2021-10-22 08:17:41
Tagged date                    : UTC 2021-10-22 08:17:43

Text #11
ID                             : 13
Format                         : Timed Text
Codec ID                       : tx3g
Duration                       : 51 min 19 s
Bit rate mode                  : Variable
Bit rate                       : 53 b/s
Stream size                    : 19.8 KiB (0%)
Title                          : Finnish
Language                       : Finnish
Forced                         : No
Encoded date                   : UTC 2021-10-22 08:17:41
Tagged date                    : UTC 2021-10-22 08:17:43

Text #12
ID                             : 14
Format                         : Timed Text
Codec ID                       : tx3g
Duration                       : 50 min 2 s
Bit rate mode                  : Variable
Bit rate                       : 55 b/s
Stream size                    : 20.1 KiB (0%)
Title                          : French
Language                       : French
Forced                         : No
Encoded date                   : UTC 2021-10-22 08:17:41
Tagged date                    : UTC 2021-10-22 08:17:43

Text #13
ID                             : 15
Format                         : Timed Text
Codec ID                       : tx3g
Duration                       : 50 min 2 s
Bit rate mode                  : Variable
Bit rate                       : 55 b/s
Stream size                    : 20.1 KiB (0%)
Title                          : French-CA
Language                       : French
Forced                         : No
Encoded date                   : UTC 2021-10-22 08:17:41
Tagged date                    : UTC 2021-10-22 08:17:43

Text #14
ID                             : 16
Format                         : Timed Text
Codec ID                       : tx3g
Duration                       : 51 min 14 s
Bit rate mode                  : Variable
Bit rate                       : 63 b/s
Stream size                    : 23.6 KiB (0%)
Title                          : German
Language                       : German
Forced                         : No
Encoded date                   : UTC 2021-10-22 08:17:41
Tagged date                    : UTC 2021-10-22 08:17:43

Text #15
ID                             : 17
Format                         : Timed Text
Codec ID                       : tx3g
Duration                       : 51 min 19 s
Bit rate mode                  : Variable
Bit rate                       : 92 b/s
Stream size                    : 34.6 KiB (0%)
Title                          : Greek
Language                       : Greek
Forced                         : No
Encoded date                   : UTC 2021-10-22 08:17:41
Tagged date                    : UTC 2021-10-22 08:17:43

Text #16
ID                             : 18
Format                         : Timed Text
Codec ID                       : tx3g
Duration                       : 51 min 19 s
Bit rate mode                  : Variable
Bit rate                       : 74 b/s
Stream size                    : 28.0 KiB (0%)
Title                          : Hebrew
Language                       : Hebrew
Forced                         : No
Encoded date                   : UTC 2021-10-22 08:17:41
Tagged date                    : UTC 2021-10-22 08:17:43

Text #17
ID                             : 19
Format                         : Timed Text
Codec ID                       : tx3g
Duration                       : 51 min 19 s
Bit rate mode                  : Variable
Bit rate                       : 141 b/s
Stream size                    : 52.9 KiB (0%)
Title                          : Hindi
Language                       : Hindi
Forced                         : No
Encoded date                   : UTC 2021-10-22 08:17:41
Tagged date                    : UTC 2021-10-22 08:17:43

Text #18
ID                             : 20
Format                         : Timed Text
Codec ID                       : tx3g
Duration                       : 51 min 19 s
Bit rate mode                  : Variable
Bit rate                       : 56 b/s
Stream size                    : 21.0 KiB (0%)
Title                          : Hungarian
Language                       : Hungarian
Forced                         : No
Encoded date                   : UTC 2021-10-22 08:17:41
Tagged date                    : UTC 2021-10-22 08:17:43

Text #19
ID                             : 21
Format                         : Timed Text
Codec ID                       : tx3g
Duration                       : 51 min 19 s
Bit rate mode                  : Variable
Bit rate                       : 57 b/s
Stream size                    : 21.4 KiB (0%)
Title                          : Indonesian
Language                       : Indonesian
Forced                         : No
Encoded date                   : UTC 2021-10-22 08:17:42
Tagged date                    : UTC 2021-10-22 08:17:43

Text #20
ID                             : 22
Format                         : Timed Text
Codec ID                       : tx3g
Duration                       : 51 min 13 s
Bit rate mode                  : Variable
Bit rate                       : 59 b/s
Stream size                    : 22.3 KiB (0%)
Title                          : Italian
Language                       : Italian
Forced                         : No
Encoded date                   : UTC 2021-10-22 08:17:42
Tagged date                    : UTC 2021-10-22 08:17:43

Text #21
ID                             : 23
Format                         : Timed Text
Codec ID                       : tx3g
Duration                       : 51 min 20 s
Bit rate mode                  : Variable
Bit rate                       : 49 b/s
Stream size                    : 18.4 KiB (0%)
Title                          : Japanese
Language                       : Japanese
Forced                         : No
Encoded date                   : UTC 2021-10-22 08:17:42
Tagged date                    : UTC 2021-10-22 08:17:43

Text #22
ID                             : 24
Format                         : Timed Text
Codec ID                       : tx3g
Duration                       : 51 min 19 s
Bit rate mode                  : Variable
Bit rate                       : 63 b/s
Stream size                    : 23.6 KiB (0%)
Title                          : Korean
Language                       : Korean
Forced                         : No
Encoded date                   : UTC 2021-10-22 08:17:42
Tagged date                    : UTC 2021-10-22 08:17:43

Text #23
ID                             : 25
Format                         : Timed Text
Codec ID                       : tx3g
Duration                       : 51 min 19 s
Bit rate mode                  : Variable
Bit rate                       : 58 b/s
Stream size                    : 21.8 KiB (0%)
Title                          : Latvian
Language                       : Latvian
Forced                         : No
Encoded date                   : UTC 2021-10-22 08:17:42
Tagged date                    : UTC 2021-10-22 08:17:43

Text #24
ID                             : 26
Format                         : Timed Text
Codec ID                       : tx3g
Duration                       : 51 min 19 s
Bit rate mode                  : Variable
Bit rate                       : 58 b/s
Stream size                    : 21.6 KiB (0%)
Title                          : Lithuanian
Language                       : Lithuanian
Forced                         : No
Encoded date                   : UTC 2021-10-22 08:17:42
Tagged date                    : UTC 2021-10-22 08:17:43

Text #25
ID                             : 27
Format                         : Timed Text
Codec ID                       : tx3g
Duration                       : 51 min 19 s
Bit rate mode                  : Variable
Bit rate                       : 57 b/s
Stream size                    : 21.3 KiB (0%)
Title                          : Malay
Language                       : Malay
Forced                         : No
Encoded date                   : UTC 2021-10-22 08:17:42
Tagged date                    : UTC 2021-10-22 08:17:43

Text #26
ID                             : 28
Format                         : Timed Text
Codec ID                       : tx3g
Duration                       : 51 min 19 s
Bit rate mode                  : Variable
Bit rate                       : 54 b/s
Stream size                    : 20.2 KiB (0%)
Title                          : Norwegian
Language                       : Norwegian
Forced                         : No
Encoded date                   : UTC 2021-10-22 08:17:42
Tagged date                    : UTC 2021-10-22 08:17:43

Text #27
ID                             : 29
Format                         : Timed Text
Codec ID                       : tx3g
Duration                       : 51 min 19 s
Bit rate mode                  : Variable
Bit rate                       : 53 b/s
Stream size                    : 19.7 KiB (0%)
Title                          : Polish
Language                       : Polish
Forced                         : No
Encoded date                   : UTC 2021-10-22 08:17:42
Tagged date                    : UTC 2021-10-22 08:17:43

Text #28
ID                             : 30
Format                         : Timed Text
Codec ID                       : tx3g
Duration                       : 51 min 19 s
Bit rate mode                  : Variable
Bit rate                       : 58 b/s
Stream size                    : 21.8 KiB (0%)
Title                          : Portuguese
Language                       : Portuguese
Forced                         : No
Encoded date                   : UTC 2021-10-22 08:17:42
Tagged date                    : UTC 2021-10-22 08:17:43

Text #29
ID                             : 31
Format                         : Timed Text
Codec ID                       : tx3g
Duration                       : 51 min 19 s
Bit rate mode                  : Variable
Bit rate                       : 52 b/s
Stream size                    : 19.7 KiB (0%)
Title                          : Portuguese-BR
Language                       : Portuguese
Forced                         : No
Encoded date                   : UTC 2021-10-22 08:17:42
Tagged date                    : UTC 2021-10-22 08:17:43

Text #30
ID                             : 32
Format                         : Timed Text
Codec ID                       : tx3g
Duration                       : 51 min 19 s
Bit rate mode                  : Variable
Bit rate                       : 86 b/s
Stream size                    : 32.3 KiB (0%)
Title                          : Russian
Language                       : Russian
Forced                         : No
Encoded date                   : UTC 2021-10-22 08:17:42
Tagged date                    : UTC 2021-10-22 08:17:43

Text #31
ID                             : 33
Format                         : Timed Text
Codec ID                       : tx3g
Duration                       : 51 min 19 s
Bit rate mode                  : Variable
Bit rate                       : 52 b/s
Stream size                    : 19.7 KiB (0%)
Title                          : Slovak
Language                       : Slovak
Forced                         : No
Encoded date                   : UTC 2021-10-22 08:17:42
Tagged date                    : UTC 2021-10-22 08:17:43

Text #32
ID                             : 34
Format                         : Timed Text
Codec ID                       : tx3g
Duration                       : 51 min 19 s
Bit rate mode                  : Variable
Bit rate                       : 48 b/s
Stream size                    : 17.9 KiB (0%)
Title                          : Slovenian
Language                       : Slovenian
Forced                         : No
Encoded date                   : UTC 2021-10-22 08:17:42
Tagged date                    : UTC 2021-10-22 08:17:43

Text #33
ID                             : 35
Format                         : Timed Text
Codec ID                       : tx3g
Duration                       : 51 min 19 s
Bit rate mode                  : Variable
Bit rate                       : 56 b/s
Stream size                    : 21.1 KiB (0%)
Title                          : Spanish
Language                       : Spanish
Forced                         : No
Encoded date                   : UTC 2021-10-22 08:17:42
Tagged date                    : UTC 2021-10-22 08:17:43

Text #34
ID                             : 36
Format                         : Timed Text
Codec ID                       : tx3g
Duration                       : 51 min 19 s
Bit rate mode                  : Variable
Bit rate                       : 59 b/s
Stream size                    : 22.0 KiB (0%)
Title                          : Spanish-EU
Language                       : Spanish
Forced                         : No
Encoded date                   : UTC 2021-10-22 08:17:42
Tagged date                    : UTC 2021-10-22 08:17:43

Text #35
ID                             : 37
Format                         : Timed Text
Codec ID                       : tx3g
Duration                       : 51 min 19 s
Bit rate mode                  : Variable
Bit rate                       : 56 b/s
Stream size                    : 21.1 KiB (0%)
Title                          : Swedish
Language                       : Swedish
Forced                         : No
Encoded date                   : UTC 2021-10-22 08:17:42
Tagged date                    : UTC 2021-10-22 08:17:43

Text #36
ID                             : 38
Format                         : Timed Text
Codec ID                       : tx3g
Duration                       : 51 min 19 s
Bit rate mode                  : Variable
Bit rate                       : 176 b/s
Stream size                    : 66.2 KiB (0%)
Title                          : Tamil
Language                       : Tamil
Forced                         : No
Encoded date                   : UTC 2021-10-22 08:17:43
Tagged date                    : UTC 2021-10-22 08:17:43

Text #37
ID                             : 39
Format                         : Timed Text
Codec ID                       : tx3g
Duration                       : 51 min 19 s
Bit rate mode                  : Variable
Bit rate                       : 158 b/s
Stream size                    : 59.4 KiB (0%)
Title                          : Telugu
Language                       : Telugu
Forced                         : No
Encoded date                   : UTC 2021-10-22 08:17:43
Tagged date                    : UTC 2021-10-22 08:17:43

Text #38
ID                             : 40
Format                         : Timed Text
Codec ID                       : tx3g
Duration                       : 51 min 19 s
Bit rate mode                  : Variable
Bit rate                       : 139 b/s
Stream size                    : 52.4 KiB (0%)
Title                          : Thai
Language                       : Thai
Forced                         : No
Encoded date                   : UTC 2021-10-22 08:17:43
Tagged date                    : UTC 2021-10-22 08:17:43

Text #39
ID                             : 41
Format                         : Timed Text
Codec ID                       : tx3g
Duration                       : 51 min 19 s
Bit rate mode                  : Variable
Bit rate                       : 57 b/s
Stream size                    : 21.5 KiB (0%)
Title                          : Turkish
Language                       : Turkish
Forced                         : No
Encoded date                   : UTC 2021-10-22 08:17:43
Tagged date                    : UTC 2021-10-22 08:17:43

Text #40
ID                             : 42
Format                         : Timed Text
Codec ID                       : tx3g
Duration                       : 51 min 19 s
Bit rate mode                  : Variable
Bit rate                       : 87 b/s
Stream size                    : 32.9 KiB (0%)
Title                          : Ukrainian
Language                       : Ukrainian
Forced                         : No
Encoded date                   : UTC 2021-10-22 08:17:43
Tagged date                    : UTC 2021-10-22 08:17:43

Text #41
ID                             : 43
Format                         : Timed Text
Codec ID                       : tx3g
Duration                       : 51 min 19 s
Bit rate mode                  : Variable
Bit rate                       : 73 b/s
Stream size                    : 27.5 KiB (0%)
Title                          : Vietnamese
Language                       : Vietnamese
Forced                         : No
Encoded date                   : UTC 2021-10-22 08:17:43
Tagged date                    : UTC 2021-10-22 08:17:43

下载地址

游客,如果您要查看本帖隐藏内容请回复

游客,如果您要查看本帖隐藏内容请回复

游客,如果您要查看本帖隐藏内容请回复

游客,如果您要查看本帖隐藏内容请回复








上一篇:公寓大楼里的谋杀案 (2021) / 第一季全10集 / 4K高清下载
下一篇:正在进行 / Work in Progress (2021) / 第二季全10集 / 4K高清下载
回复

使用道具 举报

2

主题

1383

帖子

3969

积分

4K家园VIP

Rank: 9Rank: 9Rank: 9

积分
3969
发表于 2021-10-23 18:38:51 | 显示全部楼层
为保住菊花,这个一定得回复!
回复 支持 反对

使用道具 举报

0

主题

6576

帖子

1万

积分

4K家园VIP

Rank: 9Rank: 9Rank: 9

积分
15360
发表于 2021-10-23 19:02:16 | 显示全部楼层
太好啦&萬分感謝版主的無私發佈分享%
回复 支持 反对

使用道具 举报

2

主题

1146

帖子

3454

积分

4K家园VIP

Rank: 9Rank: 9Rank: 9

积分
3454
发表于 2021-10-23 20:23:23 | 显示全部楼层
哈哈,我只看看不说话
回复 支持 反对

使用道具 举报

2

主题

1123

帖子

3391

积分

4K家园VIP

Rank: 9Rank: 9Rank: 9

积分
3391
发表于 2021-10-23 22:40:21 来自手机 | 显示全部楼层
前排支持下
回复 支持 反对

使用道具 举报

0

主题

1275

帖子

3845

积分

4K家园VIP

Rank: 9Rank: 9Rank: 9

积分
3845
发表于 2021-10-23 23:58:44 | 显示全部楼层
啊啊啊啊啊啊啊啊啊啊啊
回复 支持 反对

使用道具 举报

4

主题

1675

帖子

4659

积分

4K家园VIP

Rank: 9Rank: 9Rank: 9

积分
4659
发表于 2021-10-24 00:01:53 | 显示全部楼层
我只是路过,不发表意见
回复 支持 反对

使用道具 举报

您需要登录后才可以回帖 登录 | 立即注册

本版积分规则

精彩图文
Archiver|手机版|TAG|Sitemap|新帖|专题|联系我们:邮箱: 4kjia.com@gmail.com   

4k家园   ©2019