鱿鱼游戏 (内嵌中字)/ Squid Game (2021) / 第一季全9集/4K高清下载

[复制链接]

52

主题

59

帖子

602

积分

版主

Rank: 7Rank: 7Rank: 7

积分
602
 楼主| 发表于 2021-10-25 10:50:50 | 显示全部楼层 |阅读模式

en_poster.webp_副本.jpg

◎译  名 鱿鱼游戏 / Round Six / Squid Game / 第六轮
◎片  名 오징어 게임
◎年  代 2021
◎产  地 韩国
◎类  别 悬疑 / 惊悚
◎语  言 韩语
◎上映日期 2021-09-17(韩国)
◎IMDb评分 8.1/10 from 0 users
◎IMDb链接 https://www.imdb.com/title/tt10919420
◎豆瓣评分 7.6/10 from 345403 users
◎豆瓣链接 https://movie.douban.com/subject/34812928
◎集  数 9
◎片  长 60分钟
◎导  演 黄东赫 Dong-hyuk Hwang
◎编  剧 黄东赫 Dong-hyuk Hwang
◎主  演 李政宰 Jung-jae Lee
       朴海秀 Hae-soo Park
       孔刘 Yoo Gong
       许成泰 Seong-tae Heo
       魏化俊 Ha-joon Wi
       金周灵 Joo-ryeong Kim
       郑浩妍 Hoyeon Jung
       元春圭 Chun-gyu Won



◎简  介



       一群走投无路并急需金钱的人收到神秘邀请,邀请他们共同加入一场游戏。为了赢取 456 亿韩元的奖金,背景各异的 456 名参赛者被关在秘密场所进行游戏。每一轮游戏都是韩国人小时候会玩的传统游戏,如一二三木头人,但闯关失败的后果是死亡。谁将是最终赢家,这个游戏的目的是什么?
Squid.Game.S01E01.2160p.NF.WEBRip.HDR.x265.DD+5.1.Atmos.-N0TTZ.mkv
File size                                : 6.92 GiB
Duration                                 : 59 min 42 s
Overall bit rate                         : 16.6 Mb/s
Writing application                      : mkvmerge v61.0.0 ('So') 64-bit
Writing library                          : libebml v1.4.2 + libmatroska v1.6.4

Video
ID                                       : 1
Format                                   : HEVC
Format/Info                              : High Efficiency Video Coding
Format profile                           : Main 10@L5.1@High
HDR format                               : Dolby Vision, Version 1.0, dvhe.08.06, BL+RPU / SMPTE ST 2086, HDR10 compatible
Codec ID                                 : V_MPEGH/ISO/HEVC
Duration                                 : 58 min 17 s
Bit rate                                 : 14.7 Mb/s
Width                                    : 3 840 pixels
Height                                   : 1 920 pixels
Display aspect ratio                     : 2.000
Frame rate mode                          : Constant
Frame rate                               : 23.976 (24000/1001) FPS
Color space                              : YUV
Chroma subsampling                       : 4:2:0 (Type 2)
Bit depth                                : 10 bits
Bits/(Pixel*Frame)                       : 0.083
Stream size                              : 6.01 GiB (87%)
Writing library                          : x265 3.3+31-g431a22e82:[Windows][GCC 11.0.0][64 bit] 10bit
Encoding settings                        : cpuid=1111039 / frame-threads=4 / numa-pools=28 / wpp / no-pmode / no-pme / no-psnr / no-ssim / log-level=2 / input-csp=1 / input-res=3840x1920 / interlace=0 / total-frames=79394 / level-idc=51 / high-tier=1 / uhd-bd=0 / ref=4 / no-allow-non-conformance / repeat-headers / annexb / aud / hrd / info / hash=0 / no-temporal-layers / open-gop / min-keyint=23 / keyint=250 / gop-lookahead=0 / bframes=4 / b-adapt=2 / b-pyramid / bframe-bias=0 / rc-lookahead=25 / lookahead-slices=4 / scenecut=40 / hist-scenecut=0 / radl=0 / no-splice / no-intra-refresh / ctu=64 / min-cu-size=8 / rect / no-amp / max-tu-size=32 / tu-inter-depth=1 / tu-intra-depth=1 / limit-tu=0 / rdoq-level=2 / dynamic-rd=0.00 / no-ssim-rd / signhide / no-tskip / nr-intra=0 / nr-inter=0 / no-constrained-intra / strong-intra-smoothing / max-merge=3 / limit-refs=3 / limit-modes / me=3 / subme=3 / merange=57 / temporal-mvp / no-frame-dup / no-hme / weightp / no-weightb / no-analyze-src-pics / deblock=-2:-2 / no-sao / no-sao-non-deblock / rd=4 / selective-sao=0 / no-early-skip / rskip / no-fast-intra / no-tskip-fast / no-cu-lossless / no-b-intra / no-splitrd-skip / rdpenalty=0 / psy-rd=2.00 / psy-rdoq=1.00 / no-rd-refine / no-lossless / cbqpoffs=0 / crqpoffs=0 / rc=crf / crf=16.0 / qcomp=0.60 / qpstep=4 / stats-write=0 / stats-read=0 / vbv-maxrate=98000 / vbv-bufsize=98000 / vbv-init=0.9 / crf-max=0.0 / crf-min=0.0 / ipratio=1.40 / pbratio=1.30 / aq-mode=1 / aq-strength=1.00 / cutree / zone-count=0 / no-strict-cbr / qg-size=32 / no-rc-grain / qpmax=69 / qpmin=0 / no-const-vbv / sar=0 / overscan=0 / videoformat=5 / range=0 / colorprim=9 / transfer=16 / colormatrix=9 / chromaloc=1 / chromaloc-top=2 / chromaloc-bottom=2 / display-window=0 / master-display=G(13250,34500)B(7500,3000)R(34000,16000)WP(15635,16450)L(10000000,1) / cll=1156,402 / min-luma=0 / max-luma=1023 / log2-max-poc-lsb=8 / vui-timing-info / vui-hrd-info / slices=1 / no-opt-qp-pps / no-opt-ref-list-length-pps / no-multi-pass-opt-rps / scenecut-bias=0.05 / hist-threshold=0.01 / no-opt-cu-delta-qp / no-aq-motion / hdr10 / hdr10-opt / no-dhdr10-opt / no-idr-recovery-sei / analysis-reuse-level=0 / analysis-save-reuse-level=0 / analysis-load-reuse-level=0 / scale-factor=0 / refine-intra=0 / refine-inter=0 / refine-mv=1 / refine-ctu-distortion=0 / no-limit-sao / ctu-info=0 / no-lowpass-dct / refine-analysis-type=0 / copy-pic=1 / max-ausize-factor=1.0 / no-dynamic-refine / no-single-sei / no-hevc-aq / no-svt / no-field / qp-adaptation-range=1.00 / no-scenecut-aware-qpconformance-window-offsets / right=0 / bottom=0 / decoder-max-rate=0
Default                                  : Yes
Forced                                   : No
Color range                              : Limited
Color primaries                          : BT.2020
Transfer characteristics                 : PQ
Matrix coefficients                      : BT.2020 non-constant
Mastering display color primaries        : Display P3
Mastering display luminance              : min: 0.0001 cd/m2, max: 1000 cd/m2
Maximum Content Light Level              : 1156 cd/m2
Maximum Frame-Average Light Level        : 402 cd/m2

Audio #1
ID                                       : 2
Format                                   : E-AC-3 JOC
Format/Info                              : Enhanced AC-3 with Joint Object Coding
Commercial name                          : Dolby Digital Plus with Dolby Atmos
Codec ID                                 : A_EAC3
Duration                                 : 59 min 42 s
Bit rate mode                            : Constant
Bit rate                                 : 768 kb/s
Channel(s)                               : 6 channels
Channel layout                           : L R C LFE Ls Rs
Sampling rate                            : 48.0 kHz
Frame rate                               : 31.250 FPS (1536 SPF)
Compression mode                         : Lossy
Stream size                              : 328 MiB (5%)
Language                                 : Korean
Service kind                             : Complete Main
Default                                  : Yes
Forced                                   : No
Complexity index                         : 16
Number of dynamic objects                : 15
Bed channel count                        : 1 channel
Bed channel configuration                : LFE

Audio #2
ID                                       : 3
Format                                   : E-AC-3 JOC
Format/Info                              : Enhanced AC-3 with Joint Object Coding
Commercial name                          : Dolby Digital Plus with Dolby Atmos
Codec ID                                 : A_EAC3
Duration                                 : 59 min 42 s
Bit rate mode                            : Constant
Bit rate                                 : 768 kb/s
Channel(s)                               : 6 channels
Channel layout                           : L R C LFE Ls Rs
Sampling rate                            : 48.0 kHz
Frame rate                               : 31.250 FPS (1536 SPF)
Compression mode                         : Lossy
Stream size                              : 328 MiB (5%)
Language                                 : English
Service kind                             : Complete Main
Default                                  : No
Forced                                   : No
Complexity index                         : 16
Number of dynamic objects                : 15
Bed channel count                        : 1 channel
Bed channel configuration                : LFE

Audio #3
ID                                       : 4
Format                                   : E-AC-3
Format/Info                              : Enhanced AC-3
Commercial name                          : Dolby Digital Plus
Codec ID                                 : A_EAC3
Duration                                 : 59 min 42 s
Bit rate mode                            : Constant
Bit rate                                 : 640 kb/s
Channel(s)                               : 6 channels
Channel layout                           : L R C LFE Ls Rs
Sampling rate                            : 48.0 kHz
Frame rate                               : 31.250 FPS (1536 SPF)
Compression mode                         : Lossy
Stream size                              : 273 MiB (4%)
Language                                 : French
Service kind                             : Complete Main
Default                                  : No
Forced                                   : No

Text #1
ID                                       : 5
Format                                   : UTF-8
Codec ID                                 : S_TEXT/UTF8
Codec ID/Info                            : UTF-8 Plain Text
Duration                                 : 51 min 18 s
Bit rate                                 : 57 b/s
Count of elements                        : 703
Stream size                              : 21.5 KiB (0%)
Language                                 : English
Default                                  : No
Forced                                   : No

Text #2
ID                                       : 6
Format                                   : UTF-8
Codec ID                                 : S_TEXT/UTF8
Codec ID/Info                            : UTF-8 Plain Text
Duration                                 : 55 min 59 s
Bit rate                                 : 72 b/s
Count of elements                        : 1017
Stream size                              : 29.9 KiB (0%)
Title                                    : SDH
Language                                 : English
Default                                  : No
Forced                                   : No

Text #3
ID                                       : 7
Format                                   : UTF-8
Codec ID                                 : S_TEXT/UTF8
Codec ID/Info                            : UTF-8 Plain Text
Duration                                 : 58 min 5 s
Bit rate                                 : 0 b/s
Count of elements                        : 7
Stream size                              : 180 Bytes (0%)
Title                                    : Forced
Language                                 : Korean
Default                                  : No
Forced                                   : No

Text #4
ID                                       : 8
Format                                   : UTF-8
Codec ID                                 : S_TEXT/UTF8
Codec ID/Info                            : UTF-8 Plain Text
Duration                                 : 58 min 5 s
Bit rate                                 : 81 b/s
Count of elements                        : 995
Stream size                              : 34.9 KiB (0%)
Title                                    : SDH
Language                                 : Korean
Default                                  : No
Forced                                   : No

Text #5
ID                                       : 9
Format                                   : UTF-8
Codec ID                                 : S_TEXT/UTF8
Codec ID/Info                            : UTF-8 Plain Text
Duration                                 : 58 min 6 s
Bit rate                                 : 49 b/s
Count of elements                        : 640
Stream size                              : 21.1 KiB (0%)
Language                                 : French
Default                                  : No
Forced                                   : No

Text #6
ID                                       : 10
Format                                   : UTF-8
Codec ID                                 : S_TEXT/UTF8
Codec ID/Info                            : UTF-8 Plain Text
Duration                                 : 58 min 6 s
Bit rate                                 : 1 b/s
Count of elements                        : 19
Stream size                              : 586 Bytes (0%)
Title                                    : Forced
Language                                 : French
Default                                  : No
Forced                                   : No

Text #7
ID                                       : 11
Format                                   : UTF-8
Codec ID                                 : S_TEXT/UTF8
Codec ID/Info                            : UTF-8 Plain Text
Duration                                 : 58 min 6 s
Bit rate                                 : 73 b/s
Count of elements                        : 642
Stream size                              : 31.3 KiB (0%)
Language                                 : Arabic
Default                                  : No
Forced                                   : No

Text #8
ID                                       : 12
Format                                   : UTF-8
Codec ID                                 : S_TEXT/UTF8
Codec ID/Info                            : UTF-8 Plain Text
Duration                                 : 58 min 6 s
Bit rate                                 : 42 b/s
Count of elements                        : 641
Stream size                              : 18.0 KiB (0%)
Language                                 : Czech
Default                                  : No
Forced                                   : No

Text #9
ID                                       : 13
Format                                   : UTF-8
Codec ID                                 : S_TEXT/UTF8
Codec ID/Info                            : UTF-8 Plain Text
Duration                                 : 58 min 7 s
Bit rate                                 : 45 b/s
Count of elements                        : 641
Stream size                              : 19.2 KiB (0%)
Language                                 : Danish
Default                                  : No
Forced                                   : No

Text #10
ID                                       : 14
Format                                   : UTF-8
Codec ID                                 : S_TEXT/UTF8
Codec ID/Info                            : UTF-8 Plain Text
Duration                                 : 58 min 6 s
Bit rate                                 : 42 b/s
Count of elements                        : 641
Stream size                              : 18.2 KiB (0%)
Language                                 : German
Default                                  : No
Forced                                   : No

Text #11
ID                                       : 15
Format                                   : UTF-8
Codec ID                                 : S_TEXT/UTF8
Codec ID/Info                            : UTF-8 Plain Text
Duration                                 : 58 min 6 s
Bit rate                                 : 77 b/s
Count of elements                        : 630
Stream size                              : 32.9 KiB (0%)
Language                                 : Greek
Default                                  : No
Forced                                   : No

Text #12
ID                                       : 16
Format                                   : UTF-8
Codec ID                                 : S_TEXT/UTF8
Codec ID/Info                            : UTF-8 Plain Text
Duration                                 : 58 min 6 s
Bit rate                                 : 44 b/s
Count of elements                        : 641
Stream size                              : 18.9 KiB (0%)
Language                                 : Spanish
Default                                  : No
Forced                                   : No

Text #13
ID                                       : 17
Format                                   : UTF-8
Codec ID                                 : S_TEXT/UTF8
Codec ID/Info                            : UTF-8 Plain Text
Duration                                 : 58 min 6 s
Bit rate                                 : 43 b/s
Count of elements                        : 641
Stream size                              : 18.3 KiB (0%)
Title                                    : European
Language                                 : Spanish
Default                                  : No
Forced                                   : No

Text #14
ID                                       : 18
Format                                   : UTF-8
Codec ID                                 : S_TEXT/UTF8
Codec ID/Info                            : UTF-8 Plain Text
Duration                                 : 58 min 6 s
Bit rate                                 : 44 b/s
Count of elements                        : 641
Stream size                              : 19.0 KiB (0%)
Language                                 : Finnish
Default                                  : No
Forced                                   : No

Text #15
ID                                       : 19
Format                                   : UTF-8
Codec ID                                 : S_TEXT/UTF8
Codec ID/Info                            : UTF-8 Plain Text
Duration                                 : 58 min 6 s
Bit rate                                 : 66 b/s
Count of elements                        : 642
Stream size                              : 28.5 KiB (0%)
Language                                 : Hebrew
Default                                  : No
Forced                                   : No

Text #16
ID                                       : 20
Format                                   : UTF-8
Codec ID                                 : S_TEXT/UTF8
Codec ID/Info                            : UTF-8 Plain Text
Duration                                 : 58 min 6 s
Bit rate                                 : 38 b/s
Count of elements                        : 641
Stream size                              : 16.6 KiB (0%)
Language                                 : Croatian
Default                                  : No
Forced                                   : No

Text #17
ID                                       : 21
Format                                   : UTF-8
Codec ID                                 : S_TEXT/UTF8
Codec ID/Info                            : UTF-8 Plain Text
Duration                                 : 58 min 6 s
Bit rate                                 : 42 b/s
Count of elements                        : 641
Stream size                              : 18.3 KiB (0%)
Language                                 : Hungarian
Default                                  : No
Forced                                   : No

Text #18
ID                                       : 22
Format                                   : UTF-8
Codec ID                                 : S_TEXT/UTF8
Codec ID/Info                            : UTF-8 Plain Text
Duration                                 : 58 min 6 s
Bit rate                                 : 45 b/s
Count of elements                        : 646
Stream size                              : 19.5 KiB (0%)
Language                                 : Indonesian
Default                                  : No
Forced                                   : No

Text #19
ID                                       : 23
Format                                   : UTF-8
Codec ID                                 : S_TEXT/UTF8
Codec ID/Info                            : UTF-8 Plain Text
Duration                                 : 58 min 6 s
Bit rate                                 : 44 b/s
Count of elements                        : 641
Stream size                              : 19.0 KiB (0%)
Language                                 : Italian
Default                                  : No
Forced                                   : No

Text #20
ID                                       : 24
Format                                   : UTF-8
Codec ID                                 : S_TEXT/UTF8
Codec ID/Info                            : UTF-8 Plain Text
Duration                                 : 58 min 5 s
Bit rate                                 : 44 b/s
Count of elements                        : 598
Stream size                              : 18.9 KiB (0%)
Language                                 : Japanese
Default                                  : No
Forced                                   : No

Text #21
ID                                       : 25
Format                                   : UTF-8
Codec ID                                 : S_TEXT/UTF8
Codec ID/Info                            : UTF-8 Plain Text
Duration                                 : 58 min 6 s
Bit rate                                 : 43 b/s
Count of elements                        : 645
Stream size                              : 18.5 KiB (0%)
Language                                 : Malay
Default                                  : No
Forced                                   : No

Text #22
ID                                       : 26
Format                                   : UTF-8
Codec ID                                 : S_TEXT/UTF8
Codec ID/Info                            : UTF-8 Plain Text
Duration                                 : 58 min 6 s
Bit rate                                 : 43 b/s
Count of elements                        : 641
Stream size                              : 18.4 KiB (0%)
Language                                 : Norwegian Bokmal
Default                                  : No
Forced                                   : No

Text #23
ID                                       : 27
Format                                   : UTF-8
Codec ID                                 : S_TEXT/UTF8
Codec ID/Info                            : UTF-8 Plain Text
Duration                                 : 58 min 6 s
Bit rate                                 : 43 b/s
Count of elements                        : 632
Stream size                              : 18.4 KiB (0%)
Language                                 : Dutch
Default                                  : No
Forced                                   : No

Text #24
ID                                       : 28
Format                                   : UTF-8
Codec ID                                 : S_TEXT/UTF8
Codec ID/Info                            : UTF-8 Plain Text
Duration                                 : 58 min 6 s
Bit rate                                 : 40 b/s
Count of elements                        : 641
Stream size                              : 17.4 KiB (0%)
Language                                 : Polish
Default                                  : No
Forced                                   : No

Text #25
ID                                       : 29
Format                                   : UTF-8
Codec ID                                 : S_TEXT/UTF8
Codec ID/Info                            : UTF-8 Plain Text
Duration                                 : 58 min 6 s
Bit rate                                 : 43 b/s
Count of elements                        : 641
Stream size                              : 18.6 KiB (0%)
Language                                 : Portuguese
Default                                  : No
Forced                                   : No

Text #26
ID                                       : 30
Format                                   : UTF-8
Codec ID                                 : S_TEXT/UTF8
Codec ID/Info                            : UTF-8 Plain Text
Duration                                 : 58 min 6 s
Bit rate                                 : 42 b/s
Count of elements                        : 641
Stream size                              : 18.1 KiB (0%)
Title                                    : Brazilian
Language                                 : Portuguese
Default                                  : No
Forced                                   : No

Text #27
ID                                       : 31
Format                                   : UTF-8
Codec ID                                 : S_TEXT/UTF8
Codec ID/Info                            : UTF-8 Plain Text
Duration                                 : 58 min 6 s
Bit rate                                 : 49 b/s
Count of elements                        : 641
Stream size                              : 21.2 KiB (0%)
Language                                 : Romanian
Default                                  : No
Forced                                   : No

Text #28
ID                                       : 32
Format                                   : UTF-8
Codec ID                                 : S_TEXT/UTF8
Codec ID/Info                            : UTF-8 Plain Text
Duration                                 : 58 min 6 s
Bit rate                                 : 71 b/s
Count of elements                        : 641
Stream size                              : 30.4 KiB (0%)
Language                                 : Russian
Default                                  : No
Forced                                   : No

Text #29
ID                                       : 33
Format                                   : UTF-8
Codec ID                                 : S_TEXT/UTF8
Codec ID/Info                            : UTF-8 Plain Text
Duration                                 : 58 min 6 s
Bit rate                                 : 44 b/s
Count of elements                        : 641
Stream size                              : 18.7 KiB (0%)
Language                                 : Swedish
Default                                  : No
Forced                                   : No

Text #30
ID                                       : 34
Format                                   : UTF-8
Codec ID                                 : S_TEXT/UTF8
Codec ID/Info                            : UTF-8 Plain Text
Duration                                 : 58 min 6 s
Bit rate                                 : 120 b/s
Count of elements                        : 642
Stream size                              : 51.2 KiB (0%)
Language                                 : Thai
Default                                  : No
Forced                                   : No

Text #31
ID                                       : 35
Format                                   : UTF-8
Codec ID                                 : S_TEXT/UTF8
Codec ID/Info                            : UTF-8 Plain Text
Duration                                 : 58 min 6 s
Bit rate                                 : 45 b/s
Count of elements                        : 642
Stream size                              : 19.2 KiB (0%)
Language                                 : Turkish
Default                                  : No
Forced                                   : No

Text #32
ID                                       : 36
Format                                   : UTF-8
Codec ID                                 : S_TEXT/UTF8
Codec ID/Info                            : UTF-8 Plain Text
Duration                                 : 58 min 6 s
Bit rate                                 : 75 b/s
Count of elements                        : 642
Stream size                              : 31.9 KiB (0%)
Language                                 : Ukrainian
Default                                  : No
Forced                                   : No

Text #33
ID                                       : 37
Format                                   : UTF-8
Codec ID                                 : S_TEXT/UTF8
Codec ID/Info                            : UTF-8 Plain Text
Duration                                 : 58 min 6 s
Bit rate                                 : 64 b/s
Count of elements                        : 641
Stream size                              : 27.3 KiB (0%)
Language                                 : Vietnamese
Default                                  : No
Forced                                   : No

Text #34
ID                                       : 38
Format                                   : UTF-8
Codec ID                                 : S_TEXT/UTF8
Codec ID/Info                            : UTF-8 Plain Text
Duration                                 : 58 min 6 s
Bit rate                                 : 45 b/s
Count of elements                        : 648
Stream size                              : 19.3 KiB (0%)
Title                                    : 简体
Language                                 : 中文
Default                                  : No
Forced                                   : No

Text #35
ID                                       : 39
Format                                   : UTF-8
Codec ID                                 : S_TEXT/UTF8
Codec ID/Info                            : UTF-8 Plain Text
Duration                                 : 58 min 6 s
Bit rate                                 : 46 b/s
Count of elements                        : 648
Stream size                              : 19.6 KiB (0%)
Title                                    : 繁体
Language                                 : 中文
Default                                  : No
Forced                                   : No
下载地址

****此区域为收费内容****    需支付 15 金币后可查看立即购买





p2677934359_副本.png

上一篇:正在进行 / Work in Progress (2021) / 第二季全10集 / 4K高清下载
下一篇:武当派:美国传奇 (2021) / 第二季全10集 / 4K高清下载
回复

使用道具 举报

0

主题

1528

帖子

4184

积分

4K家园VIP

Rank: 9Rank: 9Rank: 9

积分
4184
发表于 2021-10-25 10:51:04 | 显示全部楼层
报告!别开枪,我就是路过来看看的。。。
回复 支持 反对

使用道具 举报

0

主题

2

帖子

80

积分

4K家园VIP

Rank: 9Rank: 9Rank: 9

积分
80
发表于 2021-10-25 18:33:25 | 显示全部楼层
本帖最后由 sgrddHao 于 2021-10-25 18:47 编辑

可以,感谢楼主
回复 支持 反对

使用道具 举报

0

主题

7

帖子

20

积分

新手上路

Rank: 1

积分
20
发表于 2021-10-25 19:07:09 | 显示全部楼层
迪拜4K超高清(每秒60帧)
回复 支持 反对

使用道具 举报

0

主题

7

帖子

20

积分

新手上路

Rank: 1

积分
20
发表于 2021-10-25 19:07:22 | 显示全部楼层
迪拜4K超高清(每秒60帧)
回复 支持 反对

使用道具 举报

3

主题

1362

帖子

3912

积分

4K家园VIP

Rank: 9Rank: 9Rank: 9

积分
3912
发表于 2021-10-25 19:33:08 | 显示全部楼层
非常好,顶一下
回复 支持 反对

使用道具 举报

44

主题

1477

帖子

4249

积分

4K家园VIP

Rank: 9Rank: 9Rank: 9

积分
4249
发表于 2021-10-25 22:47:24 | 显示全部楼层
LZ帖子不给力,勉强给回复下吧
回复 支持 反对

使用道具 举报

0

主题

1253

帖子

3775

积分

4K家园VIP

Rank: 9Rank: 9Rank: 9

积分
3775
发表于 2021-10-26 14:05:32 | 显示全部楼层
没明白
回复 支持 反对

使用道具 举报

1

主题

1118

帖子

3374

积分

4K家园VIP

Rank: 9Rank: 9Rank: 9

积分
3374
发表于 2021-10-27 09:36:22 | 显示全部楼层
锄禾日当午,发帖真辛苦。谁知坛中餐,帖帖皆辛苦!
回复 支持 反对

使用道具 举报

您需要登录后才可以回帖 登录 | 立即注册

本版积分规则

精彩图文
Archiver|手机版|TAG|Sitemap|新帖|专题|联系我们:邮箱: 4kjia.com@gmail.com   

4k家园   ©2019