武当派:美国传奇 (2021) / 第二季全10集 / 4K高清下载

[复制链接]

52

主题

59

帖子

602

积分

版主

Rank: 7Rank: 7Rank: 7

积分
602
 楼主| 发表于 2021-10-28 11:18:03 | 显示全部楼层 |阅读模式
p2686756864_副本.png

◎译  名 武当派:美国传奇 第二季/Wu-Tang
◎片  名 Wu-Tang: An American Saga Season 2
◎年  代 2021
◎产  地 美国
◎类  别 剧情/传记
◎语  言 英语
◎上映日期 2021-09-08(美国)
◎IMDb评分  8.3/10 from 5496 users
◎IMDb链接  https://www.imdb.com/title/tt9113406/
◎豆瓣评分 /10 from 0 users
◎豆瓣链接 https://douban.com/subject/34951615/
◎编  剧 拉萨亚历克斯·谢
◎主  演 艾什顿·桑德斯
                   沙梅克·摩尔
                   西迪克·桑德森
                   朱利安·伊莱贾·马丁内斯
                   马库斯·卡伦德
                   佐莉·格里格斯
                   TJ Atoms
                   戴夫·伊斯特
                   约翰内尔·杨
                   埃里卡·亚历山大
                   贾斯图斯·戴维斯·格雷厄姆
                   乌约塔·乌迪
                   乌木黑曜石
                   达玛尼·D·麦科森
                   Samuel D. Sease-John
                   艾米·哈里斯
                   文森特·帕斯托雷
                   博基姆·伍德拜恩
                   杰克·霍夫曼
                   安德里亚-雷切尔·帕克



◎简  介


  该节目追踪吴唐氏族的形成,这是鲍比·迪格斯 (Bobby Diggs) 的愿景,他努力团结十几个在音乐和犯罪之间徘徊但最终成为最不可能成为美国成功故事的黑人青年。
General
Complete name                  : H:\Wu-Tang.An.American.Saga.S02E01.Little.Ghetto.Boys.2160p.HULU.WEB-DL.DDP5.1.H.265-FLUX.mkv
Format                         : Matroska
Format version                 : Version 4
File size                      : 6.27 GiB
Duration                       : 57 min 42 s
Overall bit rate               : 15.6 Mb/s
Movie name                     : Wu-Tang An American Saga - S02E01 - Little Ghetto Boys
Encoded date                   : UTC 2021-09-08 04:01:15
Writing application            : mkvmerge v61.0.0 ('So') 64-bit
Writing library                : libebml v1.4.2 + libmatroska v1.6.4
IMDB                           : tt9113406
TMDB                           : tv/90870

Video
ID                             : 1
Format                         : HEVC
Format/Info                    : High Efficiency Video Coding
Format profile                 : Main 10@L5.1@Main
Codec ID                       : V_MPEGH/ISO/HEVC
Duration                       : 57 min 41 s
Bit rate                       : 15.3 Mb/s
Width                          : 3 840 pixels
Height                         : 2 160 pixels
Display aspect ratio           : 16:9
Frame rate mode                : Constant
Frame rate                     : 23.976 (24000/1001) FPS
Color space                    : YUV
Chroma subsampling             : 4:2:0
Bit depth                      : 10 bits
Bits/(Pixel*Frame)             : 0.077
Stream size                    : 6.17 GiB (98%)
Default                        : Yes
Forced                         : No

Audio
ID                             : 2
Format                         : E-AC-3
Format/Info                    : Enhanced AC-3
Commercial name                : Dolby Digital Plus
Codec ID                       : A_EAC3
Duration                       : 57 min 42 s
Bit rate mode                  : Constant
Bit rate                       : 256 kb/s
Channel(s)                     : 6 channels
Channel layout                 : L R C LFE Ls Rs
Sampling rate                  : 48.0 kHz
Frame rate                     : 31.250 FPS (1536 SPF)
Compression mode               : Lossy
Stream size                    : 106 MiB (2%)
Language                       : English
Service kind                   : Complete Main
Default                        : Yes
Forced                         : No

Text #1
ID                             : 3
Format                         : UTF-8
Codec ID                       : S_TEXT/UTF8
Codec ID/Info                  : UTF-8 Plain Text
Duration                       : 57 min 29 s
Bit rate                       : 59 b/s
Count of elements              : 843
Stream size                    : 25.2 KiB (0%)
Language                       : English
Default                        : No
Forced                         : No

Text #2
ID                             : 4
Format                         : UTF-8
Codec ID                       : S_TEXT/UTF8
Codec ID/Info                  : UTF-8 Plain Text
Duration                       : 57 min 29 s
Bit rate                       : 72 b/s
Count of elements              : 1056
Stream size                    : 30.3 KiB (0%)
Title                          : SDH
Language                       : English
Default                        : No
Forced                         : No

Text #3
ID                             : 5
Format                         : UTF-8
Codec ID                       : S_TEXT/UTF8
Codec ID/Info                  : UTF-8 Plain Text
Duration                       : 56 min 19 s
Bit rate                       : 64 b/s
Count of elements              : 1016
Stream size                    : 26.6 KiB (0%)
Title                          : SDH
Language                       : Spanish
Default                        : No
Forced                         : No

Menu
00:21:43.000                   : Chapter 1
00:28:55.000                   : Chapter 2
00:38:58.000                   : Chapter 3
00:48:30.000                   : Chapter 4
00:56:11.000                   : Chapter 5 - Credits
下载地址
游客,如果您要查看本帖隐藏内容请回复

游客,如果您要查看本帖隐藏内容请回复






上一篇:鱿鱼游戏 (内嵌中字)/ Squid Game (2021) / 第一季全9集/4K高清下载
下一篇:报复 / Reprisal (2019) / 第一季全10集 / 4K高清下载
回复

使用道具 举报

61

主题

1441

帖子

4145

积分

4K家园VIP

Rank: 9Rank: 9Rank: 9

积分
4145
发表于 2021-10-28 11:18:25 | 显示全部楼层
一直在看
回复 支持 反对

使用道具 举报

0

主题

6718

帖子

1万

积分

4K家园VIP

Rank: 9Rank: 9Rank: 9

积分
15606
发表于 2021-10-28 12:58:31 | 显示全部楼层
太好啦&萬分感謝版主的無私發佈分享%
回复 支持 反对

使用道具 举报

3

主题

1327

帖子

3999

积分

4K家园VIP

Rank: 9Rank: 9Rank: 9

积分
3999
发表于 2021-10-29 00:19:39 | 显示全部楼层
小白一个 顶一下
回复 支持 反对

使用道具 举报

14

主题

1196

帖子

3578

积分

4K家园VIP

Rank: 9Rank: 9Rank: 9

积分
3578
发表于 2021-10-29 04:14:35 | 显示全部楼层
介是神马?!!
回复 支持 反对

使用道具 举报

201

主题

1689

帖子

4627

积分

4K家园VIP

Rank: 9Rank: 9Rank: 9

积分
4627
发表于 2021-10-29 08:05:26 | 显示全部楼层
呵呵。。。
回复 支持 反对

使用道具 举报

3

主题

1169

帖子

3519

积分

4K家园VIP

Rank: 9Rank: 9Rank: 9

积分
3519
发表于 2021-10-29 13:20:24 | 显示全部楼层
试试看吧
回复 支持 反对

使用道具 举报

您需要登录后才可以回帖 登录 | 立即注册

本版积分规则

精彩图文
Archiver|手机版|TAG|Sitemap|新帖|专题|联系我们:邮箱: 4kjia.com@gmail.com   

4k家园   ©2019