[4K电影] 骗局 / The Trick (2021) 4K高清版本下载

[复制链接]

1130

主题

1203

帖子

9797

积分

超级版主

Rank: 8Rank: 8

积分
9797
 楼主| 发表于 2021-10-28 21:04:34 | 显示全部楼层 |阅读模式

QQ图片20211028205950_副本.png

◎译  名 骗局
◎片  名 The Trick
◎年  代 2021
◎产  地 美国
◎类  别 惊悚
◎语  言 英语
◎上映日期 2021-10-18(英国)
◎IMDb评分  6.6/10 from 155 users
◎IMDb链接  https://www.imdb.com/title/tt14876294/
◎豆瓣评分 0/10 from 0 users
◎豆瓣链接 https://movie.douban.com/subject/35498590/
◎片  长 69分钟
◎导  演 皮普·布劳顿
◎编  剧 希尔斯
◎主  演 杰森·沃特金斯
                   乔治·麦凯
                   维多利亚·汉密尔顿
                   拉哈珊·斯通
                   艾波·罗丝·雷瓦
                  杰罗姆·弗林
                  亚德里安·埃德蒙松
                  斯图尔特·米里根
                  大卫·卡尔德
                  克里斯·拉金
                 泼奇·奎尼尔
                  贾斯汀·塞林格
                  Andrew Dunn
                  Aneirin Hughes
                  Billy Hartman
                  理查德·艾尔芬
                  Pinar Ögün
                  Maria Pride



◎简  介

       根据真实故事改编,聚焦2009年“气候门”事件主角,世界知名的气候学研究专家菲利普·琼斯。
Video
ID : 1
Format : HEVC
Format/Info : High Efficiency Video Coding
Format profile : Main 10@L5.1@Main
Codec ID : V_MPEGH/ISO/HEVC
Duration : 1 h 29 min
Bit rate : 18.5 Mb/s
Width : 3 840 pixels
Height : 2 160 pixels
Display aspect ratio : 16:9
Frame rate mode : Constant
Frame rate : 25.000 FPS
Standard : Component
Color space : YUV
Chroma subsampling : 4:2:0
Bit depth : 10 bits
Bits/(Pixel*Frame) : 0.089
Stream size : 11.5 GiB (99%)
Language : English
Default : Yes
Forced : No
Color range : Limited
Color primaries : BT.2020
Transfer characteristics : BT.2020 (10-bit)
transfer_characteristics_Original : HLG / BT.2020 (10-bit)
Matrix coefficients : BT.2020 non-constant

Audio
ID : 2
Format : AAC LC
Format/Info : Advanced Audio Codec Low Complexity
Codec ID : A_AAC-2
Duration : 1 h 29 min
Bit rate : 192 kb/s
Channel(s) : 2 channels
Channel layout : L R
Sampling rate : 48.0 kHz
Frame rate : 46.875 FPS (1024 SPF)
Compression mode : Lossy
Stream size : 121 MiB (1%)
Language : English
Default : Yes
Forced : No

Text #1
ID : 3
Format : UTF-8
Codec ID : S_TEXT/UTF8
Codec ID/Info : UTF-8 Plain Text
Duration : 1 h 27 min
Bit rate : 71 b/s
Count of elements : 1181
Stream size : 46.2 KiB (0%)
Language : English
Default : No
Forced : No

Text #2
ID : 4
Format : UTF-8
Codec ID : S_TEXT/UTF8
Codec ID/Info : UTF-8 Plain Text
Duration : 1 h 27 min
Bit rate : 71 b/s
Count of elements : 1181
Stream size : 46.3 KiB (0%)
Title : SDH
Language : English
Default : No
Forced : No
下载地址   

游客,如果您要查看本帖隐藏内容请回复






上一篇:Envoy.Shark.Cull (2021) 4K高清版本下载
下一篇:A.Sunburnt.Christmas (2021) 4K高清版本下载
回复

使用道具 举报

2

主题

1304

帖子

3932

积分

4K家园VIP

Rank: 9Rank: 9Rank: 9

积分
3932
发表于 2021-10-28 21:04:40 | 显示全部楼层
传说中的沙发???哇卡卡
回复 支持 反对

使用道具 举报

14

主题

1192

帖子

3566

积分

4K家园VIP

Rank: 9Rank: 9Rank: 9

积分
3566
发表于 2021-10-28 21:04:40 | 显示全部楼层
回个帖子,下班咯~
回复 支持 反对

使用道具 举报

0

主题

6676

帖子

1万

积分

4K家园VIP

Rank: 9Rank: 9Rank: 9

积分
15538
发表于 2021-10-28 21:26:39 | 显示全部楼层
太好啦&萬分感謝版主的無私發佈分享%
回复 支持 反对

使用道具 举报

4

主题

1374

帖子

3958

积分

中级会员

Rank: 4

积分
3958
发表于 2021-10-29 13:33:38 | 显示全部楼层
看起来不错
回复 支持 反对

使用道具 举报

49

主题

1486

帖子

4288

积分

4K家园VIP

Rank: 9Rank: 9Rank: 9

积分
4288
发表于 2021-11-1 09:50:00 来自手机 | 显示全部楼层
在撸一遍。。。
回复 支持 反对

使用道具 举报

47

主题

1486

帖子

4300

积分

4K家园VIP

Rank: 9Rank: 9Rank: 9

积分
4300
发表于 2021-11-1 18:57:13 | 显示全部楼层
4K应该不错,我也下个看看
回复 支持 反对

使用道具 举报

您需要登录后才可以回帖 登录 | 立即注册

本版积分规则

精彩图文
Archiver|手机版|TAG|Sitemap|新帖|专题|联系我们:邮箱: 4kjia.com@gmail.com   

4k家园   ©2019