[4K电影] A.Sunburnt.Christmas (2021) 4K高清版本下载

[复制链接]

1094

主题

1167

帖子

9581

积分

超级版主

Rank: 8Rank: 8

积分
9581
 楼主| 发表于 2021-10-28 21:16:24 | 显示全部楼层 |阅读模式

QQ图片20211028211408_副本.png

◎片  名 A.Sunburnt.Christmas
◎年  代 2021
◎产  地 澳大利亚
◎类  别 喜剧
◎语  言 英语
◎上映日期 2020-12-11(澳大利亚)
◎IMDb评分  7.0/10 from 524 users
◎IMDb链接  https://www.imdb.com/title/tt13409094/
◎豆瓣评分 0/10 from 0 users
◎豆瓣链接 https://movie.douban.com/subject/35290704/
◎片  长 91分钟
◎导  演 Christiaan Van Vuuren
◎编  剧 埃利奥特·贝拉 / 格雷特·贝拉 / 蒂莫西·沃克
◎主  演 米切尔·巴特尔
                   Brendan Cooney
                   Tatiana Goode
                   丹尼尔·亨绍尔
                   Eadan McGuinness
                   Lena Nankivell
                   沙利文·斯特普尔顿
                   唐玲雪
                   Christiaan Van Vuuren
                   Alirio Zavarce



◎简  介

         在一个经历了艰难时期的内陆农场,一位单身母亲和她的三个孩子挣扎着维持他们的生活。父亲最近去世了,母亲慢慢失去了这片土地,14岁的黑兹尔肩负着重担,管理着这个失败的农场,并防止她的弟弟妹妹们完全失控。他们都怀疑今年不会有多少圣诞快乐,但当一个装扮成圣诞老人的陌生人将装满玩具的面包车撞到他们的房子上时,他们的世界以他们无法想象的方式发生了翻天覆地的变化
Video
ID : 1
Format : HEVC
Format/Info : High Efficiency Video Coding
Format profile : Main@L5@High
Codec ID : V_MPEGH/ISO/HEVC
Duration : 1 h 30 min
Bit rate : 13.2 Mb/s
Width : 3 840 pixels
Height : 2 024 pixels
Display aspect ratio : 1.897
Frame rate mode : Constant
Frame rate : 25.000 FPS
Color space : YUV
Chroma subsampling : 4:2:0
Bit depth : 8 bits
Bits/(Pixel*Frame) : 0.068
Stream size : 8.38 GiB (97%)
Language : English
Default : Yes
Forced : No
Color range : Limited
Color primaries : BT.709
Transfer characteristics : BT.709
Matrix coefficients : BT.709

Audio
ID : 2
Format : AAC LC
Format/Info : Advanced Audio Codec Low Complexity
Codec ID : A_AAC-2
Duration : 1 h 30 min
Bit rate : 445 kb/s
Channel(s) : 6 channels
Channel layout : C L R Ls Rs LFE
Sampling rate : 48.0 kHz
Frame rate : 46.875 FPS (1024 SPF)
Compression mode : Lossy
Stream size : 289 MiB (3%)
Language : English
Default : Yes
Forced : No

Text
ID : 3
Format : UTF-8
Codec ID : S_TEXT/UTF8
Codec ID/Info : UTF-8 Plain Text
Duration : 1 h 29 min
Bit rate : 78 b/s
Count of elements : 1758
Stream size : 51.4 KiB (0%)
Title : CC
Language : English
Default : No
Forced : No
迅雷下载资源速度为零,资源敏感或被和谐时,推荐使用qBittorrent等无限速下载软件,有条件的推荐115更好的下载软件!

下载地址


游客,如果您要查看本帖隐藏内容请回复

游客,如果您要查看本帖隐藏内容请回复









上一篇:骗局 / The Trick (2021) 4K高清版本下载
下一篇:丝绸之路 / Silk Road (2021) 4K高清版本下载
回复

使用道具 举报

5

主题

1624

帖子

4448

积分

4K家园VIP

Rank: 9Rank: 9Rank: 9

积分
4448
发表于 2021-10-28 21:16:28 | 显示全部楼层
确实不错,顶先
回复 支持 反对

使用道具 举报

0

主题

2

帖子

13

积分

新手上路

Rank: 1

积分
13
发表于 2021-10-28 21:19:32 | 显示全部楼层
GGGDFDSFGSDF
回复 支持 反对

使用道具 举报

0

主题

6576

帖子

1万

积分

4K家园VIP

Rank: 9Rank: 9Rank: 9

积分
15360
发表于 2021-10-28 21:27:22 | 显示全部楼层
太好啦&萬分感謝版主的無私發佈分享%
回复 支持 反对

使用道具 举报

1

主题

1580

帖子

4330

积分

4K家园VIP

Rank: 9Rank: 9Rank: 9

积分
4330
发表于 2021-10-29 22:59:38 | 显示全部楼层
啊啊啊啊啊啊啊啊啊啊啊
回复 支持 反对

使用道具 举报

59

主题

1445

帖子

4189

积分

4K家园VIP

Rank: 9Rank: 9Rank: 9

积分
4189
发表于 2021-10-30 21:59:01 | 显示全部楼层
体验下4K版的
回复 支持 反对

使用道具 举报

0

主题

11

帖子

493

积分

4K家园VIP

Rank: 9Rank: 9Rank: 9

积分
493
发表于 2021-10-31 14:32:22 | 显示全部楼层
thanks  dddddddddd
回复 支持 反对

使用道具 举报

2

主题

1699

帖子

4633

积分

4K家园VIP

Rank: 9Rank: 9Rank: 9

积分
4633
发表于 2021-11-4 20:37:46 来自手机 | 显示全部楼层
没明白
回复 支持 反对

使用道具 举报

49

主题

1428

帖子

4110

积分

4K家园VIP

Rank: 9Rank: 9Rank: 9

积分
4110
发表于 2021-11-8 08:00:31 来自手机 | 显示全部楼层
元芳你怎么看?
回复 支持 反对

使用道具 举报

您需要登录后才可以回帖 登录 | 立即注册

本版积分规则

精彩图文
Archiver|手机版|TAG|Sitemap|新帖|专题|联系我们:邮箱: 4kjia.com@gmail.com   

4k家园   ©2019