[4K电影] 鬼影实录6 / Paranormal.Activity.Next.of.Kin (2021) 4K高清版本下载

[复制链接]

1130

主题

1203

帖子

9797

积分

超级版主

Rank: 8Rank: 8

积分
9797
 楼主| 发表于 2021-10-29 13:54:29 | 显示全部楼层 |阅读模式
本帖最后由 最爱4K哟 于 2021-10-29 14:35 编辑

QQ图片20211029134759_副本.png

◎译  名 鬼影实录6
◎片  名 Paranormal.Activity.Next.of.Kin
◎年  代 2021
◎产  地 美国
◎类  别 悬疑 / 惊悚 / 恐怖
◎语  言 英语
◎上映日期 2021-10-29(美国)
◎IMDb评分  7.1/10 from 38723 users
◎IMDb链接  https://www.imdb.com/title/tt10515988/
◎豆瓣评分 0/10 from 0 users
◎豆瓣链接 https://movie.douban.com/subject/34884170/
◎片  长 98分钟
◎导  演 威廉·尤班克
◎编  剧 克里斯托弗·兰登
◎主  演 罗兰·巴克三世
                   吉尔·安德烈
                   艾米丽·巴德
                   汤姆·诺维茨基
                   古纳尔·怀特
                   克里·锡安
                   Dan Lippert
                   Henry Ayres-Brown
                   Wesley Han
                   Colin Keane


◎简  介

         情节保密。“超自然活动”电影系列的下一章
General
Complete name                  : H:\4K@电影:Paranormal.Activity.Next.of.Kin.2021.2160p.WEB-DL.DDP5.1.DV.MP4.x265-DVSUX.mp4
Format                         : MPEG-4
Format profile                 : Base Media / Version 2
Codec ID                       : mp42 (isom/mp42/dby1)
File size                      : 6.78 GiB
Duration                       : 1 h 38 min
Overall bit rate mode          : Variable
Overall bit rate               : 9 865 kb/s
Encoded date                   : UTC 2021-10-29 05:38:01
Tagged date                    : UTC 2021-10-29 05:38:01
IsTruncated                    : Yes

Video
ID                             : 1
Format                         : HEVC
Format/Info                    : High Efficiency Video Coding
Format profile                 : Main 10@L5@High
HDR format                     : Dolby Vision, Version 1.0, dvhe.05.06, BL+RPU
Codec ID                       : dvhe
Codec ID/Info                  : High Efficiency Video Coding with Dolby Vision
Duration                       : 1 h 38 min
Bit rate                       : 14.6 Mb/s
Width                          : 3 840 pixels
Height                         : 2 160 pixels
Display aspect ratio           : 16:9
Frame rate mode                : Constant
Frame rate                     : 23.976 (24000/1001) FPS
Color space                    : YUV
Chroma subsampling             : 4:2:0 (Type 0)
Bit depth                      : 10 bits
Bits/(Pixel*Frame)             : 0.074
Stream size                    : 10.1 GiB
Default                        : Yes
Alternate group                : 1
Encoded date                   : UTC 2021-10-29 05:30:28
Tagged date                    : UTC 2021-10-29 05:38:12
Color range                    : Full
Codec configuration box        : hvcC+dvcC

Audio
ID                             : 2
Format                         : E-AC-3
Format/Info                    : Enhanced AC-3
Commercial name                : Dolby Digital Plus
Codec ID                       : ec-3
Duration                       : 1 h 38 min
Bit rate mode                  : Constant
Bit rate                       : 640 kb/s
Maximum bit rate               : 676 kb/s
Channel(s)                     : 6 channels
Channel layout                 : L R C LFE Ls Rs
Sampling rate                  : 48.0 kHz
Frame rate                     : 31.250 FPS (1536 SPF)
Compression mode               : Lossy
Stream size                    : 451 MiB (6%)
Title                          : English
Language                       : English
Service kind                   : Complete Main
Default                        : Yes
Alternate group                : 1
Tagged date                    : UTC 2021-10-29 05:38:12

Text
ID                             : 3
Format                         : Timed Text
Codec ID                       : tx3g
Duration                       : 1 h 34 min
Bit rate mode                  : Variable
Bit rate                       : 58 b/s
Stream size                    : 40.3 KiB (0%)
Title                          : English
Language                       : English
Forced                         : No
Encoded date                   : UTC 2021-10-29 05:38:12
Tagged date                    : UTC 2021-10-29 05:38:12

下载地址:

游客,如果您要查看本帖隐藏内容请回复

游客,如果您要查看本帖隐藏内容请回复

游客,如果您要查看本帖隐藏内容请回复




.






上一篇:丝绸之路 / Silk Road (2021) 4K高清版本下载
下一篇:蛇首 /Snakehead (2021) 4K高清版本下载
回复

使用道具 举报

0

主题

1313

帖子

3951

积分

4K家园VIP

Rank: 9Rank: 9Rank: 9

积分
3951
发表于 2021-10-29 13:54:33 | 显示全部楼层
围观 围观 沙发在哪里!!!
回复 支持 反对

使用道具 举报

49

主题

1486

帖子

4288

积分

4K家园VIP

Rank: 9Rank: 9Rank: 9

积分
4288
发表于 2021-10-29 13:54:33 | 显示全部楼层
报告!别开枪,我就是路过来看看的。。。
回复 支持 反对

使用道具 举报

0

主题

6676

帖子

1万

积分

4K家园VIP

Rank: 9Rank: 9Rank: 9

积分
15538
发表于 2021-10-29 15:29:00 | 显示全部楼层
太好啦&萬分感謝版主的無私發佈分享%
回复 支持 反对

使用道具 举报

62

主题

1549

帖子

4481

积分

4K家园VIP

Rank: 9Rank: 9Rank: 9

积分
4481
发表于 2021-10-29 17:33:01 | 显示全部楼层
楼主这资源不错,我收藏了
回复 支持 反对

使用道具 举报

0

主题

2

帖子

9

积分

新手上路

Rank: 1

积分
9
发表于 2021-10-29 17:59:43 来自手机 | 显示全部楼层
我也看
回复

使用道具 举报

0

主题

2

帖子

9

积分

新手上路

Rank: 1

积分
9
发表于 2021-10-29 18:00:20 来自手机 | 显示全部楼层
想看
回复

使用道具 举报

41

主题

1457

帖子

4169

积分

4K家园VIP

Rank: 9Rank: 9Rank: 9

积分
4169
发表于 2021-10-29 18:58:31 | 显示全部楼层
鼎力支持!!
回复 支持 反对

使用道具 举报

0

主题

1666

帖子

4510

积分

4K家园VIP

Rank: 9Rank: 9Rank: 9

积分
4510
发表于 2021-10-29 19:48:38 | 显示全部楼层
LZ是天才,坚定完毕
回复 支持 反对

使用道具 举报

0

主题

9

帖子

59

积分

新手上路

Rank: 1

积分
59
发表于 2021-10-29 20:08:35 | 显示全部楼层
谢谢
回复

使用道具 举报

您需要登录后才可以回帖 登录 | 立即注册

本版积分规则

精彩图文
Archiver|手机版|TAG|Sitemap|新帖|专题|联系我们:邮箱: 4kjia.com@gmail.com   

4k家园   ©2019