[4K电影] 九天 / Nine Days (2020) 4K高清版下载

[复制链接]

1094

主题

1167

帖子

9581

积分

超级版主

Rank: 8Rank: 8

积分
9581
 楼主| 发表于 2021-11-1 09:58:18 | 显示全部楼层 |阅读模式
本帖最后由 最爱4K哟 于 2021-11-1 11:12 编辑

QQ图片20211101110448_副本.png

◎译  名 九天
◎片  名 Nine Days
◎年  代 2020
◎产  地 美国
◎类  别 剧情 / 奇幻
◎语  言 英语
◎上映日期 2020-01-27(圣丹斯电影节) / 2021-07-30(美国)
◎IMDb评分  7.5/10 from 1699 users
◎IMDb链接  https://www.imdb.com/title/tt10451852/
◎豆瓣评分 6.7/10 from 98 users
◎豆瓣链接 https://movie.douban.com/subject/34261430/
◎片  长 124分钟
◎导  演 小田埃德森 Edson Oda
◎编  剧 小田埃德森 Edson Oda
◎主  演 莎姬·贝兹 Zazie Beetz
       比尔·斯卡斯加德 Bill Skarsg?rd
       温斯顿·杜克 Winston Duke
       托尼·海尔 Tony Hale
       本尼迪克特·王 Benedict Wong
       杰拉尔丁·休斯 Geraldine Hughes
       大卫·里达尔 David Rysdahl
       罗根·史密斯 Logan Smith
       约翰·福克 John Forker
       雷切尔·哈代 Rachelle Hardy
       戴夫·布雷斯纳安 Dave Bresnahan
      卡德罗莎·奥娜·卡罗尔



◎简  介

  温斯顿·杜克、莎姬·贝兹、比尔·斯卡斯加德、本尼迪克特·王、大卫·里达尔将携手出演小田埃德森自编自导的导演处女作[九天](Nine Days,暂译)。影片讲述在一个远离我们所认知的现实世界的房子里,一个隐居的人(杜克饰)面见了人类灵魂化身的准候选人(贝兹、斯卡斯加德、王、里达尔饰),原因是这个人曾经拥有的特权——生育。影片将于今夏开机。

◎获奖情况

  第36届圣丹斯电影节 ?(2020)
  评审团大奖剧情片(提名) 小田埃德森

  第36届美国独立精神奖 ?(2021)
  最佳处女作(提名)
  最佳男配角(提名) 本尼迪克特·王
Video
ID : 1
Format : HEVC
Format/Info : High Efficiency Video Coding
Format profile : Main 10@L5@High
HDR format : SMPTE ST 2086, HDR10 compatible
Codec ID : V_MPEGH/ISO/HEVC
Duration : 2 h 3 min
Bit rate : 14.3 Mb/s
Width : 3 840 pixels
Height : 1 600 pixels
Display aspect ratio : 2.40:1
Frame rate mode : Constant
Frame rate : 23.976 FPS
Color space : YUV
Chroma subsampling : 4:2:0 (Type 2)
Bit depth : 10 bits
Bits/(Pixel*Frame) : 0.097
Stream size : 12.4 GiB (81%)
Default : Yes
Forced : No
Color range : Limited
Color primaries : BT.2020
Transfer characteristics : PQ
Matrix coefficients : BT.2020 non-constant
Mastering display color primaries : BT.2020
Mastering display luminance : min: 0.0050 cd/m2, max: 1000 cd/m2
Maximum Content Light Level : 1154 cd/m2
Maximum Frame-Average Light Level : 227 cd/m2

Audio #1
ID : 2
Format : DTS XLL
Format/Info : Digital Theater Systems
Commercial name : DTS-HD Master Audio
Codec ID : A_DTS
Duration : 2 h 3 min
Bit rate mode : Variable
Bit rate : 3 074 kb/s
Channel(s) : 6 channels
Channel layout : C L R Ls Rs LFE
Sampling rate : 48.0 kHz
Frame rate : 93.750 FPS (512 SPF)
Bit depth : 24 bits
Compression mode : Lossless
Delay relative to video : 1 s 0 ms
Stream size : 2.66 GiB (17%)
Title : DTS-HD MA 5.1
Language : English
Default : Yes
Forced : No

Audio #2
ID : 3
Format : AC-3
Format/Info : Audio Coding 3
Commercial name : Dolby Digital
Codec ID : A_AC3
Duration : 2 h 3 min
Bit rate mode : Constant
Bit rate : 384 kb/s
Channel(s) : 6 channels
Channel layout : L R C LFE Ls Rs
Sampling rate : 48.0 kHz
Frame rate : 31.250 FPS (1536 SPF)
Compression mode : Lossy
Stream size : 340 MiB (2%)
Title : DD 5.1
Language : English
Service kind : Complete Main
Default : No
Forced : No

Text #1
ID : 4
Format : UTF-8
Codec ID : S_TEXT/UTF8
Codec ID/Info : UTF-8 Plain Text
Duration : 1 h 50 min
Bit rate : 40 b/s
Count of elements : 1161
Stream size : 33.1 KiB (0%)
Title : SRT
Language : English
Default : Yes
Forced : No

Text #2
ID : 5
Format : PGS
Muxing mode : zlib
Codec ID : S_HDMV/PGS
Codec ID/Info : Picture based subtitle format used on BDs/HD-DVDs
Duration : 1 h 50 min
Bit rate : 25.9 kb/s
Count of elements : 2416
Stream size : 20.5 MiB (0%)
Language : English
Default : No
Forced : No

Menu
00:00:00.000 : en:Chapter 01
00:10:00.725 : en:Chapter 02
00:20:01.492 : en:Chapter 03
00:30:01.925 : en:Chapter 04
00:40:02.650 : en:Chapter 05
00:50:03.667 : en:Chapter 06
01:00:04.518 : en:Chapter 07
01:10:04.742 : en:Chapter 08
01:20:05.009 : en:Chapter 09
01:30:05.692 : en:Chapter 10
01:40:06.751 : en:Chapter 11
01:50:06.892 : en:Chapter 12
02:00:07.492 : en:Chapter 13

迅雷下载资源速度为零,资源敏感或被和谐时,推荐使用qBittorrent等无限速下载软件,有条件的推荐115更好的下载软件!


下载地址

游客,如果您要查看本帖隐藏内容请回复

游客,如果您要查看本帖隐藏内容请回复




.




上一篇:暗夜獠牙(内封简繁中字)/ Night Teeth (2021) 4K高清版下载
下一篇:蜘蛛侠 / Spider-Man (2002) 4K高清版下载
回复

使用道具 举报

1

主题

1384

帖子

3986

积分

中级会员

Rank: 4

积分
3986
发表于 2021-11-1 09:58:18 | 显示全部楼层
你们要是有4K资源记得分享,别小气
回复 支持 反对

使用道具 举报

40

主题

1495

帖子

4281

积分

4K家园VIP

Rank: 9Rank: 9Rank: 9

积分
4281
发表于 2021-11-1 09:58:19 | 显示全部楼层
无论是不是沙发都得回复下
回复 支持 反对

使用道具 举报

0

主题

1299

帖子

3895

积分

4K家园VIP

Rank: 9Rank: 9Rank: 9

积分
3895
发表于 2021-11-1 09:58:19 | 显示全部楼层
前排,哇咔咔
回复 支持 反对

使用道具 举报

40

主题

1495

帖子

4275

积分

4K家园VIP

Rank: 9Rank: 9Rank: 9

积分
4275
发表于 2021-11-1 09:58:19 来自手机 | 显示全部楼层
LZ敢整点更有创意的不?兄弟们等着围观捏~
回复 支持 反对

使用道具 举报

3

主题

1290

帖子

3894

积分

4K家园VIP

Rank: 9Rank: 9Rank: 9

积分
3894
发表于 2021-11-1 09:58:19 | 显示全部楼层
秀起来~
回复 支持 反对

使用道具 举报

0

主题

1678

帖子

4636

积分

4K家园VIP

Rank: 9Rank: 9Rank: 9

积分
4636
发表于 2021-11-1 09:58:19 | 显示全部楼层
都不知道说的啥
回复 支持 反对

使用道具 举报

0

主题

6576

帖子

1万

积分

4K家园VIP

Rank: 9Rank: 9Rank: 9

积分
15360
发表于 2021-11-1 10:52:22 | 显示全部楼层
太好啦&萬分感謝版主的無私發佈分享%
回复 支持 反对

使用道具 举报

0

主题

3

帖子

69

积分

4K家园VIP

Rank: 9Rank: 9Rank: 9

积分
69
发表于 2021-11-1 10:53:17 | 显示全部楼层
我咋看不见图了呢····
回复 支持 反对

使用道具 举报

0

主题

663

帖子

2311

积分

注册会员

Rank: 2

积分
2311
发表于 2021-11-1 21:20:21 | 显示全部楼层

感谢楼主分享好片
回复 支持 反对

使用道具 举报

您需要登录后才可以回帖 登录 | 立即注册

本版积分规则

精彩图文
Archiver|手机版|TAG|Sitemap|新帖|专题|联系我们:邮箱: 4kjia.com@gmail.com   

4k家园   ©2019