[4K UHD 蓝光原盘] 游泳池 / La piscine (1969) 4K蓝光原盘版本下载

[复制链接]

1200

主题

1261

帖子

1万

积分

超级版主

Rank: 8Rank: 8

积分
14494
 楼主| 发表于 2021-11-1 11:26:06 | 显示全部楼层 |阅读模式
QQ图片20211101103918_副本.png

◎译  名 游泳池/The Swimming Pool
◎片  名 La piscine
◎年  代 1969
◎产  地 法国,意大利
◎类  别 剧情 / 犯罪
◎语  言 法语,英语
◎上映日期 1969-01-31
◎IMDb评分  7.1/10 from 9367 users
◎IMDb链接  https://www.imdb.com/title/tt0064816/
◎豆瓣评分 7.0/10 from 982 users
◎豆瓣链接 https://movie.douban.com/subject/1308459/
◎片  长 120 分钟
◎导  演 雅克·德雷 Jacques Deray
◎编  剧 雅克·德雷 Jacques Deray / 让-克劳德·卡里埃尔 Jean-Claude Carrière
◎主  演 阿兰·德龙 Alain Delon
       罗密·施奈德 Romy Schneider
       莫里斯·罗内 Maurice Ronet
       简·伯金 Jane Birkin
       保罗·克罗谢 Paul Crauchet



◎简  介

  阿兰·德龙与罗密·施奈德合作的一部影片,这时已经是他们金童玉女时代之后的事情了,虽然爱情已逝,却又还没老,正是他们青春的顶峰,恰到好处,脱了甜蜜,却又还没有世故,只是已开始有了些感慨的样子。导演尽情展露他们的完美身体,一多半戏都是发生在游泳池边。他们在片中演一对恋人,但是那时他们在生活中已经不爱了,这也容易让人想入非非。影片展现了阿兰·德龙和罗密·施奈德的青春盛时之美。

Video
ID : 1
Format : HEVC
Format/Info : High Efficiency Video Coding
Format profile : Main 10@L5.1@High
HDR format : SMPTE ST 2086, HDR10 compatible
Codec ID : V_MPEGH/ISO/HEVC
Duration : 2 h 3 min
Bit rate : 43.1 Mb/s
Width : 3 600 pixels
Height : 2 160 pixels
Display aspect ratio : 5:3
Frame rate mode : Constant
Frame rate : 24.000 FPS
Color space : YUV
Chroma subsampling : 4:2:0 (Type 2)
Bit depth : 10 bits
Bits/(Pixel*Frame) : 0.231
Stream size : 37.0 GiB (99%)
Writing library : x265 3.5+16-7955046e7:[Windows][MSVC 1929][64 bit] 10bit
Encoding settings : cpuid=1111039 / frame-threads=3 / numa-pools=12 / wpp / no-pmode / no-pme / no-psnr / no-ssim / log-level=2 / input-csp=1 / input-res=3600x2160 / interlace=0 / total-frames=177188 / level-idc=51 / high-tier=1 / uhd-bd=0 / ref=4 / no-allow-non-conformance / repeat-headers / annexb / aud / no-eob / no-eos / hrd / info / hash=0 / no-temporal-layers / no-open-gop / min-keyint=24 / keyint=250 / gop-lookahead=0 / bframes=4 / b-adapt=2 / b-pyramid / bframe-bias=0 / rc-lookahead=25 / lookahead-slices=4 / scenecut=40 / no-hist-scenecut / radl=0 / no-splice / no-intra-refresh / ctu=64 / min-cu-size=8 / rect / no-amp / max-tu-size=32 / tu-inter-depth=1 / tu-intra-depth=1 / limit-tu=0 / rdoq-level=2 / dynamic-rd=0.00 / no-ssim-rd / signhide / no-tskip / nr-intra=0 / nr-inter=0 / no-constrained-intra / strong-intra-smoothing / max-merge=3 / limit-refs=3 / limit-modes / me=3 / subme=3 / merange=57 / temporal-mvp / no-frame-dup / no-hme / weightp / no-weightb / no-analyze-src-pics / deblock=-3:-3 / no-sao / no-sao-non-deblock / rd=4 / selective-sao=0 / no-early-skip / rskip / no-fast-intra / no-tskip-fast / no-cu-lossless / no-b-intra / no-splitrd-skip / rdpenalty=0 / psy-rd=2.00 / psy-rdoq=1.00 / no-rd-refine / no-lossless / cbqpoffs=0 / crqpoffs=0 / rc=crf / crf=23.0 / qcomp=0.60 / qpstep=4 / stats-write=0 / stats-read=0 / vbv-maxrate=160000 / vbv-bufsize=160000 / vbv-init=0.9 / min-vbv-fullness=50.0 / max-vbv-fullness=80.0 / crf-max=0.0 / crf-min=0.0 / ipratio=1.40 / pbratio=1.30 / aq-mode=2 / aq-strength=1.00 / cutree / zone-count=0 / no-strict-cbr / qg-size=32 / no-rc-grain / qpmax=69 / qpmin=0 / no-const-vbv / sar=1 / overscan=0 / videoformat=5 / range=0 / colorprim=9 / transfer=16 / colormatrix=9 / chromaloc=1 / chromaloc-top=2 / chromaloc-bottom=2 / display-window=0 / master-display=G(8500,39850)B(6550,2300)R(35400,14600)WP(15635,16450)L(10000000,1) / cll=0,0 / min-luma=0 / max-luma=1023 / log2-max-poc-lsb=8 / vui-timing-info / vui-hrd-info / slices=1 / no-opt-qp-pps / no-opt-ref-list-length-pps / no-multi-pass-opt-rps / scenecut-bias=0.05 / hist-threshold=0.03 / no-opt-cu-delta-qp / no-aq-motion / hdr10 / hdr10-opt / no-dhdr10-opt / no-idr-recovery-sei / analysis-reuse-level=0 / analysis-save-reuse-level=0 / analysis-load-reuse-level=0 / scale-factor=0 / refine-intra=0 / refine-inter=0 / refine-mv=1 / refine-ctu-distortion=0 / no-limit-sao / ctu-info=0 / no-lowpass-dct / refine-analysis-type=0 / copy-pic=1 / max-ausize-factor=1.0 / no-dynamic-refine / no-single-sei / no-hevc-aq / no-svt / no-field / qp-adaptation-range=1.00 / scenecut-aware-qp=0conformance-window-offsets / right=0 / bottom=0 / decoder-max-rate=0 / no-vbv-live-multi-pass
Default : Yes
Forced : No
Color range : Limited
Color primaries : BT.2020
Transfer characteristics : PQ
Matrix coefficients : BT.2020 non-constant
Mastering display color primaries : BT.2020
Mastering display luminance : min: 0.0001 cd/m2, max: 1000 cd/m2

Audio
ID : 2
Format : FLAC
Format/Info : Free Lossless Audio Codec
Codec ID : A_FLAC
Duration : 2 h 3 min
Bit rate mode : Variable
Bit rate : 583 kb/s
Channel(s) : 2 channels
Channel layout : L R
Sampling rate : 48.0 kHz
Frame rate : 11.719 FPS (4096 SPF)
Bit depth : 24 bits
Compression mode : Lossless
Stream size : 514 MiB (1%)
Writing library : libFLAC 1.2.1 (UTC 2007-09-17)
Language : French
Default : Yes
Forced : No

Text #1
ID : 3
Format : UTF-8
Codec ID : S_TEXT/UTF8
Codec ID/Info : UTF-8 Plain Text
Duration : 2 h 2 min
Bit rate : 26 b/s
Count of elements : 924
Stream size : 23.7 KiB (0%)
Title : English
Language : English
Default : Yes
Forced : Yes

Text #2
ID : 4
Format : PGS
Muxing mode : zlib
Codec ID : S_HDMV/PGS
Codec ID/Info : Picture based subtitle format used on BDs/HD-DVDs
Duration : 2 h 2 min
Bit rate : 6 551 b/s
Count of elements : 1848
Stream size : 5.76 MiB (0%)
Title : English
Language : English
Default : No
Forced : No

Text #3
ID : 5
Format : UTF-8
Codec ID : S_TEXT/UTF8
Codec ID/Info : UTF-8 Plain Text
Duration : 2 h 2 min
Bit rate : 36 b/s
Count of elements : 1271
Stream size : 32.7 KiB (0%)
Title : French SDH
Language : French
Default : No
Forced : No

Text #4
ID : 6
Format : PGS
Muxing mode : zlib
Codec ID : S_HDMV/PGS
Codec ID/Info : Picture based subtitle format used on BDs/HD-DVDs
Duration : 2 h 2 min
Bit rate : 6 848 b/s
Count of elements : 2540
Stream size : 5.99 MiB (0%)
Title : French SDH
Language : French
Default : No
Forced : No

Menu
00:00:00.000 : en:00:00:00.000
00:07:56.250 : en:00:07:56.250
00:18:16.208 : en:00:18:16.208
00:28:29.042 : en:00:28:29.042
00:39:38.375 : en:00:39:38.375
00:47:34.542 : en:00:47:34.542
00:53:27.292 : en:00:53:27.292
01:00:26.042 : en:01:00:26.042
01:14:05.000 : en:01:14:05.000
01:27:47.583 : en:01:27:47.583
01:39:09.708 : en:01:39:09.708
01:52:33.208 : en:01:52:33.208

迅雷下载资源速度为零,资源敏感和谐时,推荐使用qBittorrent等下载软件,有条件的推荐115更好的下载软件!

游泳池(37.93GB)La.Piscine.1969.FRENCH.2160p.UHD.BluRay.x265.10bit.HDR.FLAC.2.0-DEATH
游客,如果您要查看本帖隐藏内容请回复



1心,爱心.gif

上一篇:夜深血红(附外挂字幕) (1975) 4K蓝光[原盘+REMUX]版本下载
下一篇:玛戈王后 / La Reine Margot (1994) 4K蓝光[原盘+REMUX]版本下载
回复

使用道具 举报

0

主题

1607

帖子

4451

积分

4K家园VIP

Rank: 9Rank: 9Rank: 9

积分
4451
发表于 2021-11-1 11:26:10 | 显示全部楼层
还有没有别的资源,多分享些
回复 支持 反对

使用道具 举报

0

主题

6576

帖子

1万

积分

4K家园VIP

Rank: 9Rank: 9Rank: 9

积分
15360
发表于 2021-11-1 12:44:58 | 显示全部楼层
太好啦&萬分感謝版主的無私發佈分享%
回复 支持 反对

使用道具 举报

0

主题

201

帖子

1224

积分

注册会员

Rank: 2

积分
1224
发表于 2021-11-1 15:26:43 | 显示全部楼层
感謝版主的無私發佈分享
回复 支持 反对

使用道具 举报

0

主题

663

帖子

2311

积分

注册会员

Rank: 2

积分
2311
发表于 2021-11-2 23:02:09 | 显示全部楼层
多谢楼主分享!!!
回复 支持 反对

使用道具 举报

0

主题

663

帖子

2311

积分

注册会员

Rank: 2

积分
2311
发表于 2021-11-2 23:05:01 | 显示全部楼层
多谢楼主分享!!!
回复 支持 反对

使用道具 举报

1

主题

1118

帖子

3374

积分

4K家园VIP

Rank: 9Rank: 9Rank: 9

积分
3374
发表于 2021-11-3 02:47:57 | 显示全部楼层
这个资源我记得是一套的,楼主还有没有
回复 支持 反对

使用道具 举报

2

主题

1299

帖子

3751

积分

4K家园VIP

Rank: 9Rank: 9Rank: 9

积分
3751
发表于 2021-11-4 22:20:06 | 显示全部楼层
这个资源我记得是一套的,楼主还有没有
回复 支持 反对

使用道具 举报

1

主题

1320

帖子

3976

积分

4K家园VIP

Rank: 9Rank: 9Rank: 9

积分
3976
发表于 2021-11-5 14:23:27 | 显示全部楼层
支持一下楼主,顶起来
回复 支持 反对

使用道具 举报

1

主题

1309

帖子

3773

积分

4K家园VIP

Rank: 9Rank: 9Rank: 9

积分
3773
发表于 2021-11-5 17:34:27 | 显示全部楼层
楼主这资源不错,我收藏了
回复 支持 反对

使用道具 举报

您需要登录后才可以回帖 登录 | 立即注册

本版积分规则

精彩图文
Archiver|手机版|TAG|Sitemap|新帖|专题|联系我们:邮箱: 4kjia.com@gmail.com   

4k家园   ©2019