[国家地理] [4K国家地理] 自然景点-夏蒙尼 (2021) [2160P/MKV/239MB]

[复制链接]

2607

主题

2941

帖子

2万

积分

超级版主

Rank: 8Rank: 8

积分
24482
 楼主| 发表于 2021-11-8 13:15:01 | 显示全部楼层 |阅读模式
本帖最后由 叽里呱啦 于 2021-11-2 11:27 编辑

夏蒙尼 (2021) WEBRip 2160p.mkv_20211102_112257.669.jpg 夏蒙尼 (2021) WEBRip 2160p.mkv_20211102_112306.973.jpg 夏蒙尼 (2021) WEBRip 2160p.mkv_20211102_112314.749.jpg 夏蒙尼 (2021) WEBRip 2160p.mkv_20211102_112325.485.jpg 夏蒙尼 (2021) WEBRip 2160p.mkv_20211102_112333.973.jpg 夏蒙尼 (2021) WEBRip 2160p.mkv_20211102_112356.229.jpg

电影信息
名称:夏蒙尼
发布年份:2021年
国家:法国
时间:00:03:30
类型:类型
导演:路易斯·吉顿


关于电影:

        法国最古老的度假胜地的主要景点是美丽的自然和山脉。

General
Complete name                  : E:\4K@电影 4K@MV\国家地理\夏蒙尼 (2021) WEBRip 2160p.mkv
Format                         : Matroska
Format version                 : Version 4
File size                      : 239 MiB
Duration                       : 3 min 30 s
Overall bit rate               : 9 524 kb/s
Encoded date                   : UTC 2021-10-21 23:02:06
Writing application            : mkvmerge v62.0.0 ('Apollo') 64-bit
Writing library                : libebml v1.4.2 + libmatroska v1.6.4 / IDMmkvlib0.1
Language                       : und

Video
ID                             : 1
Format                         : VP9
Codec ID                       : V_VP9
Duration                       : 3 min 30 s
Bit rate                       : 9 395 kb/s
Width                          : 3 840 pixels
Height                         : 2 160 pixels
Display aspect ratio           : 16:9
Frame rate mode                : Variable
Frame rate                     : 30.000 FPS
Bits/(Pixel*Frame)             : 0.038
Stream size                    : 236 MiB (99%)
Default                        : Yes
Forced                         : No

Audio
ID                             : 2
Format                         : Opus
Codec ID                       : A_OPUS
Duration                       : 3 min 30 s
Bit rate                       : 128 kb/s
Channel(s)                     : 2 channels
Channel layout                 : L R
Sampling rate                  : 48.0 kHz
Frame rate                     : 50.000 FPS (960 SPF)
Bit depth                      : 16 bits
Compression mode               : Lossy
Stream size                    : 3.20 MiB (1%)
Default                        : Yes
Forced                         : No

下载地址

游客,如果您要查看本帖隐藏内容请回复






上一篇:[4K国家地理] 云中的岛屿60fps (2019) [2160P/MKV/483MB]
下一篇:[4K国家地理] 我在图林根的夏天 (2021) [2160P/MKV/478MB]
回复

使用道具 举报

0

主题

1567

帖子

4281

积分

4K家园VIP

Rank: 9Rank: 9Rank: 9

积分
4281
发表于 2021-11-8 13:15:06 | 显示全部楼层
楼主呀,,,您太有才了。。。
回复 支持 反对

使用道具 举报

0

主题

1360

帖子

3924

积分

4K家园VIP

Rank: 9Rank: 9Rank: 9

积分
3924
发表于 2021-11-8 13:47:05 | 显示全部楼层
报告!别开枪,我就是路过来看看的。。。
回复 支持 反对

使用道具 举报

1

主题

1281

帖子

3859

积分

4K家园VIP

Rank: 9Rank: 9Rank: 9

积分
3859
发表于 2021-11-8 13:48:02 来自手机 | 显示全部楼层
你们要是有4K资源记得分享,别小气
回复 支持 反对

使用道具 举报

0

主题

1

帖子

10

积分

新手上路

Rank: 1

积分
10
发表于 2021-11-8 13:56:49 | 显示全部楼层
222
回复

使用道具 举报

1

主题

1118

帖子

3374

积分

4K家园VIP

Rank: 9Rank: 9Rank: 9

积分
3374
发表于 2021-11-8 14:23:37 | 显示全部楼层
专业抢沙发的!哈哈
回复 支持 反对

使用道具 举报

1

主题

1377

帖子

3979

积分

4K家园VIP

Rank: 9Rank: 9Rank: 9

积分
3979
发表于 2021-11-8 14:31:31 | 显示全部楼层
出4K版啦,下个看看
回复 支持 反对

使用道具 举报

0

主题

3

帖子

15

积分

新手上路

Rank: 1

积分
15
发表于 2021-11-8 15:50:13 | 显示全部楼层
需要回复,我试试看能不能下载
回复 支持 反对

使用道具 举报

0

主题

6576

帖子

1万

积分

4K家园VIP

Rank: 9Rank: 9Rank: 9

积分
15360
发表于 2021-11-8 16:11:30 | 显示全部楼层
法国度假胜地夏蒙尼4k
回复 支持 反对

使用道具 举报

0

主题

7

帖子

40

积分

新手上路

Rank: 1

积分
40
发表于 2021-11-8 21:06:04 | 显示全部楼层
99999999999999999999999
回复 支持 反对

使用道具 举报

您需要登录后才可以回帖 登录 | 立即注册

本版积分规则

精彩图文
Archiver|手机版|TAG|Sitemap|新帖|专题|联系我们:邮箱: 4kjia.com@gmail.com   

4k家园   ©2019