[国家地理] [4K国家地理] 我在图林根的夏天 (2021) [2160P/MKV/478MB]

[复制链接]

2609

主题

2943

帖子

2万

积分

超级版主

Rank: 8Rank: 8

积分
24513
 楼主| 发表于 2021-11-14 13:02:38 | 显示全部楼层 |阅读模式

我在图林根的夏天 (2021) WEBRip 2160p.mkv_20211102_112851.661.jpg 我在图林根的夏天 (2021) WEBRip 2160p.mkv_20211102_112857.797.jpg 我在图林根的夏天 (2021) WEBRip 2160p.mkv_20211102_112911.037.jpg 我在图林根的夏天 (2021) WEBRip 2160p.mkv_20211102_112924.332.jpg 我在图林根的夏天 (2021) WEBRip 2160p.mkv_20211102_112934.644.jpg 我在图林根的夏天 (2021) WEBRip 2160p.mkv_20211102_112954.765.jpg

电影信息
标题:我在图林根州的夏天
发行年份: 2021
国家:德国
时长: 00:04 : 13
类型: 物种
导演:丹尼斯·施梅尔茨

关于电影:

       作为一名电影制片人和摄影师,我在新冠大流行前几年不间断地环游世界,但无法尽快处理我在那里经历的故事。在过去的七年里,我在德国的时间没有超过三个月。由于封锁,旅行突然不再可能,我开始发现家门口的世界:图林根。


General
Unique ID                      : 258610544650704133297654928985197419833 (0xC28E9445A5498F35FC15FA86D7F09D39)
Complete name                  : E:\4K@电影 4K@MV\国家地理\我在图林根的夏天 (2021) WEBRip 2160p.mkv
Format                         : Matroska
Format version                 : Version 4
File size                      : 478 MiB
Duration                       : 4 min 13 s
Overall bit rate               : 15.8 Mb/s
Encoded date                   : UTC 2021-10-26 16:19:47
Writing application            : mkvmerge v62.0.0 ('Apollo') 64-bit
Writing library                : libebml v1.4.2 + libmatroska v1.6.4 / IDMmkvlib0.1
Language                       : und

Video
ID                             : 1
Format                         : VP9
Codec ID                       : V_VP9
Duration                       : 4 min 13 s
Bit rate                       : 15.7 Mb/s
Width                          : 3 840 pixels
Height                         : 2 160 pixels
Display aspect ratio           : 16:9
Frame rate mode                : Constant
Frame rate                     : 25.000 FPS
Bits/(Pixel*Frame)             : 0.076
Stream size                    : 474 MiB (99%)
Default                        : Yes
Forced                         : No

Audio
ID                             : 2
Format                         : Opus
Codec ID                       : A_OPUS
Duration                       : 4 min 13 s
Bit rate                       : 121 kb/s
Channel(s)                     : 2 channels
Channel layout                 : L R
Sampling rate                  : 48.0 kHz
Frame rate                     : 50.000 FPS (960 SPF)
Bit depth                      : 16 bits
Compression mode               : Lossy
Stream size                    : 3.64 MiB (1%)
Default                        : Yes
Forced                         : No
下载地址

****此区域为收费内容****    需支付 15 金币后可查看立即购买







上一篇:[4K国家地理] 自然景点-夏蒙尼 (2021) [2160P/MKV/239MB]
下一篇:[4K国家地理] 特塞拉 (2021) [2160P/MKV/486MB]
回复

使用道具 举报

1

主题

1238

帖子

3732

积分

4K家园VIP

Rank: 9Rank: 9Rank: 9

积分
3732
发表于 2021-11-14 13:02:50 来自手机 | 显示全部楼层
支持,赞一个
回复 支持 反对

使用道具 举报

0

主题

6676

帖子

1万

积分

4K家园VIP

Rank: 9Rank: 9Rank: 9

积分
15538
发表于 2021-11-14 18:46:28 | 显示全部楼层
德国图林根州的夏天4k
回复 支持 反对

使用道具 举报

2

主题

1315

帖子

3952

积分

4K家园VIP

Rank: 9Rank: 9Rank: 9

积分
3952
发表于 2021-11-16 03:38:56 | 显示全部楼层
秀起来~
回复 支持 反对

使用道具 举报

53

主题

1468

帖子

4272

积分

4K家园VIP

Rank: 9Rank: 9Rank: 9

积分
4272
发表于 2021-11-16 10:46:19 | 显示全部楼层
看帖要回,回帖才健康,在踩踩,楼主辛苦了!
回复 支持 反对

使用道具 举报

0

主题

664

帖子

2317

积分

注册会员

Rank: 2

积分
2317
发表于 2021-11-25 22:42:37 | 显示全部楼层
谢谢分享   
回复 支持 反对

使用道具 举报

0

主题

1666

帖子

4606

积分

4K家园VIP

Rank: 9Rank: 9Rank: 9

积分
4606
发表于 2021-11-28 11:47:58 | 显示全部楼层
报告!别开枪,我就是路过来看看的。。。
回复 支持 反对

使用道具 举报

您需要登录后才可以回帖 登录 | 立即注册

本版积分规则

精彩图文
Archiver|手机版|TAG|Sitemap|新帖|专题|联系我们:邮箱: 4kjia.com@gmail.com   

4k家园   ©2019