[国家地理] [4K国家地理] 特塞拉 (2021) [2160P/MKV/486MB]

[复制链接]

2607

主题

2941

帖子

2万

积分

超级版主

Rank: 8Rank: 8

积分
24482
 楼主| 发表于 2021-11-9 10:49:09 | 显示全部楼层 |阅读模式

特塞拉(486MB) (2021) WEBRip 2160p.mkv_20211102_113504.484.jpg 特塞拉(486MB) (2021) WEBRip 2160p.mkv_20211102_113521.317.jpg 特塞拉(486MB) (2021) WEBRip 2160p.mkv_20211102_113537.381.jpg 特塞拉(486MB) (2021) WEBRip 2160p.mkv_20211102_113552.413.jpg 特塞拉(486MB) (2021) WEBRip 2160p.mkv_20211102_113615.164.jpg 特塞拉(486MB) (2021) WEBRip 2160p.mkv_20211102_113628.612.jpg

影片信息
片名: Terceira
上映年份: 2021
国家:葡萄牙
持续时间: 00:04 : 05
类型: 物种
导演: Pin Your Footsteps

关于电影:

        Terceira 是亚速尔群岛中的一个火山岛,位于北大西洋的中心。它也是亚速尔群岛最古老的城市英雄安格拉、群岛的历史首都和联合国教科文组织世界遗产的所在地。亚速尔群岛的城市通常不是很迷人,但安格拉绝对不同!


General
Unique ID                      : 207095325704410410609311604560284478918 (0x9BCD1BE1A2B2FB22AFD348153149EDC6)
Complete name                  : E:\4K@电影 4K@MV\国家地理\特塞拉(486MB) (2021) WEBRip 2160p.mkv
Format                         : Matroska
Format version                 : Version 4
File size                      : 486 MiB
Duration                       : 4 min 5 s
Overall bit rate               : 16.6 Mb/s
Encoded date                   : UTC 2021-09-16 16:52:33
Writing application            : mkvmerge v61.0.0 ('So') 64-bit
Writing library                : libebml v1.4.2 + libmatroska v1.6.4 / Lavf58.29.100

Video
ID                             : 1
Format                         : VP9
Codec ID                       : V_VP9
Duration                       : 4 min 5 s
Bit rate                       : 16.5 Mb/s
Width                          : 3 840 pixels
Height                         : 2 160 pixels
Display aspect ratio           : 16:9
Frame rate mode                : Constant
Frame rate                     : 29.970 (30000/1001) FPS
Color space                    : YUV
Bits/(Pixel*Frame)             : 0.066
Stream size                    : 483 MiB (99%)
Default                        : Yes
Forced                         : No
Color range                    : Limited
Color primaries                : BT.709
Transfer characteristics       : BT.709
Matrix coefficients            : BT.709

Audio
ID                             : 2
Format                         : Opus
Codec ID                       : A_OPUS
Duration                       : 4 min 5 s
Bit rate                       : 128 kb/s
Channel(s)                     : 2 channels
Channel layout                 : L R
Sampling rate                  : 48.0 kHz
Frame rate                     : 50.001 FPS (960 SPF)
Bit depth                      : 32 bits
Compression mode               : Lossy
Stream size                    : 3.75 MiB (1%)
Default                        : Yes
Forced                         : No
下载地址

****此区域为收费内容****    需支付 15 金币后可查看立即购买







上一篇:[4K国家地理] 我在图林根的夏天 (2021) [2160P/MKV/478MB]
下一篇:[4K国家地理] 圣米格尔 (2021) [2160P/MKV/659MB]
回复

使用道具 举报

57

主题

1492

帖子

4332

积分

4K家园VIP

Rank: 9Rank: 9Rank: 9

积分
4332
发表于 2021-11-9 10:49:14 | 显示全部楼层
体验下4K版的
回复 支持 反对

使用道具 举报

0

主题

6576

帖子

1万

积分

4K家园VIP

Rank: 9Rank: 9Rank: 9

积分
15360
发表于 2021-11-9 11:37:26 | 显示全部楼层
葡萄牙特塞拉4k
回复 支持 反对

使用道具 举报

1

主题

1328

帖子

3772

积分

4K家园VIP

Rank: 9Rank: 9Rank: 9

积分
3772
发表于 5 天前 | 显示全部楼层
围观 围观 沙发在哪里!!!
回复 支持 反对

使用道具 举报

59

主题

1445

帖子

4189

积分

4K家园VIP

Rank: 9Rank: 9Rank: 9

积分
4189
发表于 昨天 22:44 | 显示全部楼层
求沙发
回复 支持 反对

使用道具 举报

您需要登录后才可以回帖 登录 | 立即注册

本版积分规则

精彩图文
Archiver|手机版|TAG|Sitemap|新帖|专题|联系我们:邮箱: 4kjia.com@gmail.com   

4k家园   ©2019