[国家地理] [4K国家地理] 圣米格尔 (2021) [2160P/MKV/659MB]

[复制链接]

2607

主题

2941

帖子

2万

积分

超级版主

Rank: 8Rank: 8

积分
24482
 楼主| 发表于 2021-11-16 11:51:10 | 显示全部楼层 |阅读模式

圣米格尔 (2021) WEBRip 2160p.mkv_20211102_114257.196.jpg 圣米格尔 (2021) WEBRip 2160p.mkv_20211102_114305.108.jpg 圣米格尔 (2021) WEBRip 2160p.mkv_20211102_114317.356.jpg 圣米格尔 (2021) WEBRip 2160p.mkv_20211102_114332.701.jpg 圣米格尔 (2021) WEBRip 2160p.mkv_20211102_114340.196.jpg 圣米格尔 (2021) WEBRip 2160p.mkv_20211102_114418.220.jpg

影片信息
片名:圣米格尔
上映年份: 2021
国家:葡萄牙
工作室:钉住你的脚步
持续时间: 00:05 : 47
类型: 物种

关于电影:

          圣米格尔是九个岛屿中最大的一个,它的绰号“绿岛”正是您在这里旅行时可以期待的.. . 由于其火山起源,您有机会探索破火山口、湖泊、火山峰、热气腾腾的泥浆池、温泉和郁郁葱葱的峡谷。
General
Unique ID                      : 88137422183734826396751535061089908472 (0x424EA66A5D0295742DF71E5C3573F6F8)
Complete name                  : E:\4K@电影 4K@MV\国家地理\圣米格尔 (2021) WEBRip 2160p.mkv
Format                         : Matroska
Format version                 : Version 4
File size                      : 660 MiB
Duration                       : 5 min 47 s
Overall bit rate               : 15.9 Mb/s
Encoded date                   : UTC 2021-10-26 16:50:39
Writing application            : mkvmerge v62.0.0 ('Apollo') 64-bit
Writing library                : libebml v1.4.2 + libmatroska v1.6.4 / IDMmkvlib0.1
Language                       : und

Video
ID                             : 1
Format                         : VP9
Codec ID                       : V_VP9
Duration                       : 5 min 47 s
Bit rate                       : 15.8 Mb/s
Width                          : 3 840 pixels
Height                         : 2 160 pixels
Display aspect ratio           : 16:9
Frame rate mode                : Variable
Frame rate                     : 29.970 (29970/1000) FPS
Bits/(Pixel*Frame)             : 0.064
Stream size                    : 654 MiB (99%)
Default                        : Yes
Forced                         : No

Audio
ID                             : 2
Format                         : Opus
Codec ID                       : A_OPUS
Duration                       : 5 min 47 s
Bit rate                       : 131 kb/s
Channel(s)                     : 2 channels
Channel layout                 : L R
Sampling rate                  : 48.0 kHz
Frame rate                     : 50.000 FPS (960 SPF)
Bit depth                      : 16 bits
Compression mode               : Lossy
Stream size                    : 5.41 MiB (1%)
Default                        : Yes
Forced                         : No
下载地址



****此区域为收费内容****    需支付 15 金币后可查看立即购买







上一篇:[4K国家地理] 特塞拉 (2021) [2160P/MKV/486MB]
下一篇:[4K国家地理] 圣玛丽亚 (2021) [2160P/MKV/280MB]
回复

使用道具 举报

6

主题

1406

帖子

4062

积分

4K家园VIP

Rank: 9Rank: 9Rank: 9

积分
4062
发表于 2021-11-16 11:51:17 | 显示全部楼层
什么东西啊
回复 支持 反对

使用道具 举报

0

主题

6576

帖子

1万

积分

4K家园VIP

Rank: 9Rank: 9Rank: 9

积分
15360
发表于 2021-11-16 12:58:49 | 显示全部楼层
葡萄牙圣米格尔4k
回复 支持 反对

使用道具 举报

41

主题

1456

帖子

4166

积分

4K家园VIP

Rank: 9Rank: 9Rank: 9

积分
4166
发表于 2021-11-16 14:10:25 | 显示全部楼层
不错 支持下
回复 支持 反对

使用道具 举报

5

主题

1438

帖子

4146

积分

4K家园VIP

Rank: 9Rank: 9Rank: 9

积分
4146
发表于 2021-11-16 15:42:35 | 显示全部楼层
我也顶起出售广告位
回复 支持 反对

使用道具 举报

2

主题

1302

帖子

3922

积分

4K家园VIP

Rank: 9Rank: 9Rank: 9

积分
3922
发表于 2021-11-19 10:24:26 | 显示全部楼层
有4K版啦,下个看下
回复 支持 反对

使用道具 举报

2

主题

1123

帖子

3391

积分

4K家园VIP

Rank: 9Rank: 9Rank: 9

积分
3391
发表于 2021-11-19 22:39:46 来自手机 | 显示全部楼层
高手云集 果断围观
回复 支持 反对

使用道具 举报

0

主题

663

帖子

2311

积分

注册会员

Rank: 2

积分
2311
发表于 6 天前 | 显示全部楼层
谢谢分享   
回复 支持 反对

使用道具 举报

您需要登录后才可以回帖 登录 | 立即注册

本版积分规则

精彩图文
Archiver|手机版|TAG|Sitemap|新帖|专题|联系我们:邮箱: 4kjia.com@gmail.com   

4k家园   ©2019