[国家地理] [4K国家地理] 圣玛丽亚 (2021) [2160P/MKV/280MB]

[复制链接]

2610

主题

2944

帖子

2万

积分

超级版主

Rank: 8Rank: 8

积分
24527
 楼主| 发表于 2021-11-20 11:54:51 | 显示全部楼层 |阅读模式
本帖最后由 叽里呱啦 于 2021-11-2 11:51 编辑

圣玛丽亚 (2021) WEBRip 2160p.mkv_20211102_114827.724.jpg 圣玛丽亚 (2021) WEBRip 2160p.mkv_20211102_114832.836.jpg 圣玛丽亚 (2021) WEBRip 2160p.mkv_20211102_114838.348.jpg 圣玛丽亚 (2021) WEBRip 2160p.mkv_20211102_114851.124.jpg 圣玛丽亚 (2021) WEBRip 2160p.mkv_20211102_114859.451.jpg 圣玛丽亚 (2021) WEBRip 2160p.mkv_20211102_114909.923.jpg

影片信息
片名:圣玛丽亚
上映时间: 2021
国家:葡萄牙
工作室:钉住你的脚步
持续时间: 00 : 02 : 05
类型: 物种

影片简介:

        圣玛丽亚岛距离圣米格尔岛最近,飞行时间仅需 20 分钟左右。它是 9 个亚速尔群岛中最古老的,气候更加炎热干燥。您还将找到亚速尔群岛唯一的白色沙滩!

General
Unique ID                      : 267262825907703045731074412252167011254 (0xC910F2AC708B0004CF557E7F0505FBB6)
Complete name                  : E:\4K@电影 4K@MV\国家地理\圣玛丽亚 (2021) WEBRip 2160p.mkv
Format                         : Matroska
Format version                 : Version 4
File size                      : 280 MiB
Duration                       : 2 min 5 s
Overall bit rate               : 18.7 Mb/s
Encoded date                   : UTC 2021-10-26 16:39:52
Writing application            : mkvmerge v62.0.0 ('Apollo') 64-bit
Writing library                : libebml v1.4.2 + libmatroska v1.6.4 / IDMmkvlib0.1
Language                       : und

Video
ID                             : 1
Format                         : VP9
Codec ID                       : V_VP9
Duration                       : 2 min 5 s
Bit rate                       : 18.6 Mb/s
Width                          : 3 840 pixels
Height                         : 2 160 pixels
Display aspect ratio           : 16:9
Frame rate mode                : Constant
Frame rate                     : 25.000 FPS
Bits/(Pixel*Frame)             : 0.089
Stream size                    : 278 MiB (99%)
Default                        : Yes
Forced                         : No

Audio
ID                             : 2
Format                         : Opus
Codec ID                       : A_OPUS
Duration                       : 2 min 5 s
Bit rate                       : 133 kb/s
Channel(s)                     : 2 channels
Channel layout                 : L R
Sampling rate                  : 48.0 kHz
Frame rate                     : 50.000 FPS (960 SPF)
Bit depth                      : 16 bits
Compression mode               : Lossy
Stream size                    : 1.99 MiB (1%)
Default                        : Yes
Forced                         : No

下载地址

****此区域为收费内容****    需支付 15 金币后可查看立即购买






上一篇:[4K国家地理] 圣米格尔 (2021) [2160P/MKV/659MB]
下一篇:[4K国家地理] 圣托港 (2021) [2160P/MKV/344MB]
回复

使用道具 举报

2

主题

1310

帖子

3796

积分

4K家园VIP

Rank: 9Rank: 9Rank: 9

积分
3796
发表于 2021-11-20 11:54:59 | 显示全部楼层
啊啊啊啊啊啊啊啊啊啊啊
回复 支持 反对

使用道具 举报

0

主题

6718

帖子

1万

积分

4K家园VIP

Rank: 9Rank: 9Rank: 9

积分
15606
发表于 2021-11-20 13:08:40 | 显示全部楼层
葡萄牙圣玛丽亚4k
回复 支持 反对

使用道具 举报

50

主题

1415

帖子

4055

积分

4K家园VIP

Rank: 9Rank: 9Rank: 9

积分
4055
发表于 2021-11-22 08:02:44 | 显示全部楼层
站位支持
回复 支持 反对

使用道具 举报

52

主题

1448

帖子

4210

积分

4K家园VIP

Rank: 9Rank: 9Rank: 9

积分
4210
发表于 2021-11-22 18:04:14 | 显示全部楼层
有4K版啦,下个看下
回复 支持 反对

使用道具 举报

52

主题

1495

帖子

4323

积分

4K家园VIP

Rank: 9Rank: 9Rank: 9

积分
4323
发表于 2021-11-24 15:17:10 | 显示全部楼层
感谢楼主发帖,前排顶起
回复 支持 反对

使用道具 举报

0

主题

16

帖子

56

积分

新手上路

Rank: 1

积分
56
发表于 2021-11-24 20:25:13 | 显示全部楼层
ghhjkkkukikbvb vc v v
回复 支持 反对

使用道具 举报

3

主题

1337

帖子

4029

积分

4K家园VIP

Rank: 9Rank: 9Rank: 9

积分
4029
发表于 2021-11-25 17:13:03 来自手机 | 显示全部楼层
前排顶,很好!
回复 支持 反对

使用道具 举报

您需要登录后才可以回帖 登录 | 立即注册

本版积分规则

精彩图文
Archiver|手机版|TAG|Sitemap|新帖|专题|联系我们:邮箱: 4kjia.com@gmail.com   

4k家园   ©2019