[国家地理] [4K国家地理] 瑞士秀丽风景 (2021) [2160P/MKV/379MB]

[复制链接]

2664

主题

2998

帖子

2万

积分

超级版主

Rank: 8Rank: 8

积分
25020
 楼主| 发表于 2021-11-28 10:49:24 | 显示全部楼层 |阅读模式
本帖最后由 叽里呱啦 于 2021-11-2 12:38 编辑

瑞士(379MB) (2021) WEBRip 2160p.mkv_20211102_123108.611.jpg 瑞士(379MB) (2021) WEBRip 2160p.mkv_20211102_123116.522.jpg 瑞士(379MB) (2021) WEBRip 2160p.mkv_20211102_123121.562.jpg 瑞士(379MB) (2021) WEBRip 2160p.mkv_20211102_123131.691.jpg 瑞士(379MB) (2021) WEBRip 2160p.mkv_20211102_123136.618.jpg 瑞士(379MB) (2021) WEBRip 2160p.mkv_20211102_123201.346.jpg

影片信息
片名:瑞士秀丽风景
上映时间: 2021
国家:瑞士
时长: 00 : 02 : 58
类型: 物种
导演:优柔寡断

影片介绍:

       非常喜欢这次旅行,画面也很精彩。希望你和我一样喜欢它。

General
Unique ID                      : 166785023830893863421544274941305311083 (0x7D79A08E06561AB8F3CE37213A7A4F6B)
Complete name                  : E:\4K@电影 4K@MV\国家地理\瑞士秀丽风景(379MB) (2021) WEBRip 2160p.mkv
Format                         : Matroska
Format version                 : Version 4
File size                      : 380 MiB
Duration                       : 2 min 58 s
Overall bit rate               : 17.9 Mb/s
Encoded date                   : UTC 2021-09-16 18:23:38
Writing application            : mkvmerge v61.0.0 ('So') 64-bit
Writing library                : libebml v1.4.2 + libmatroska v1.6.4 / Lavf58.29.100

Video
ID                             : 1
Format                         : VP9
Codec ID                       : V_VP9
Duration                       : 2 min 58 s
Bit rate                       : 17.8 Mb/s
Width                          : 3 840 pixels
Height                         : 2 160 pixels
Display aspect ratio           : 16:9
Frame rate mode                : Constant
Frame rate                     : 30.000 FPS
Color space                    : YUV
Bits/(Pixel*Frame)             : 0.071
Stream size                    : 377 MiB (99%)
Default                        : Yes
Forced                         : No
Color range                    : Limited
Color primaries                : BT.709
Transfer characteristics       : BT.709
Matrix coefficients            : BT.709

Audio
ID                             : 2
Format                         : Opus
Codec ID                       : A_OPUS
Duration                       : 2 min 58 s
Bit rate                       : 140 kb/s
Channel(s)                     : 2 channels
Channel layout                 : L R
Sampling rate                  : 48.0 kHz
Frame rate                     : 50.001 FPS (960 SPF)
Bit depth                      : 32 bits
Compression mode               : Lossy
Stream size                    : 2.97 MiB (1%)
Default                        : Yes
Forced                         : No

下载地址:


****此区域为收费内容****    需支付 15 金币后可查看立即购买




.

上一篇:[4K国家地理] 云端中的白云岩 (2021) [2160P/MKV/269MB]
下一篇:[4K国家地理] 伦敦超延时拍影 [2160P/MKV/243MB]
回复

使用道具 举报

53

主题

1205

帖子

3681

积分

4K家园VIP

Rank: 9Rank: 9Rank: 9

积分
3681
发表于 2021-11-28 10:49:34 | 显示全部楼层
LZ是天才,坚定完毕
回复 支持 反对

使用道具 举报

2

主题

1363

帖子

3939

积分

4K家园VIP

Rank: 9Rank: 9Rank: 9

积分
3939
发表于 2021-11-28 11:28:46 来自手机 | 显示全部楼层
不错 支持下
回复 支持 反对

使用道具 举报

0

主题

7280

帖子

1万

积分

4K家园VIP

Rank: 9Rank: 9Rank: 9

积分
16651
发表于 2021-11-28 13:15:41 | 显示全部楼层
瑞士秀丽风景4k
回复 支持 反对

使用道具 举报

1

主题

1704

帖子

4720

积分

4K家园VIP

Rank: 9Rank: 9Rank: 9

积分
4720
发表于 2021-12-1 15:32:43 来自手机 | 显示全部楼层
LZ敢整点更有创意的不?兄弟们等着围观捏~
回复 支持 反对

使用道具 举报

52

主题

1441

帖子

4153

积分

4K家园VIP

Rank: 9Rank: 9Rank: 9

积分
4153
发表于 2021-12-6 08:50:34 | 显示全部楼层
我也来顶一下..
回复 支持 反对

使用道具 举报

1

主题

1170

帖子

3532

积分

4K家园VIP

Rank: 9Rank: 9Rank: 9

积分
3532
发表于 2021-12-7 16:51:39 | 显示全部楼层
沙发位出租,
回复 支持 反对

使用道具 举报

您需要登录后才可以回帖 登录 | 立即注册

本版积分规则

精彩图文
Archiver|手机版|TAG|Sitemap|新帖|专题|联系我们:邮箱: 4kjia.com@gmail.com   

4k家园   ©2019