[4K电影] 月光光心慌慌:杀戮 / Halloween Kills (2021) 4K高清版下载

[复制链接]

1134

主题

1211

帖子

9838

积分

超级版主

Rank: 8Rank: 8

积分
9838
 楼主| 发表于 2021-11-4 17:38:28 | 显示全部楼层 |阅读模式
本帖最后由 最爱4K哟 于 2021-11-4 17:58 编辑

7151_420.png QQ图片20211104175140_副本420.png

◎译  名 月光光心慌慌:杀戮/万圣节杀戮/月光光心慌慌:万圣节杀戮/月光光新慌慌:万圣杀(台)/月光光殺清光(港)
◎片  名 Halloween Kills
◎年  代 2021
◎产  地 英国,美国
◎类  别 惊悚 / 恐怖
◎语  言 英语
◎上映日期 2021-09-08(威尼斯电影节) / 2021-10-15(美国/美国网络)
◎IMDb评分  5.7/10 from 48873 users
◎IMDb链接  https://www.imdb.com/title/tt10665338/
◎豆瓣评分 5.0/10 from 3058 users
◎豆瓣链接 https://movie.douban.com/subject/34626280/
◎片  长 106分钟
◎导  演 大卫·戈登·格林
◎编  剧 约翰·卡朋特  / 大卫·戈登·格林  / 黛布拉·希尔  / 丹尼·麦克布莱德  / 斯科特·泰姆斯
◎主  演 杰米·李·柯蒂斯
      朱迪·格雷尔
      詹姆斯·裘德·柯特尼
      尼克·卡斯特尔
      安迪·马蒂切克
      凯尔·理查兹
      威尔·帕顿
      托马斯·曼
      吉姆·卡明斯
      迪伦·阿诺德
      罗伯特·朗斯特里特
      安东尼·迈克尔·豪尔
      Charles Cyphers
      斯科特·麦克阿瑟
      迈克尔·麦克唐纳
      南希·斯蒂芬斯
      莱尼·克拉克
      奥马尔·J·多尔西
      布莱恩·杜尔金
      德鲁·谢伊德
      尼古拉斯·普罗约尔
      Drew Broderick
      吉布瑞尔·南谭布
      P·J·索尔丝
      鲍勃·奥登科克
      安迪·贝西亚
      卡德罗莎·奥娜·卡罗尔
       Matthew Warzel
      Tanya Jacobson
      迪索·拉莫斯
      Salem Collins


◎简  介

  自洛莉·史特罗德与其女凯伦以及孙女艾莉森设法将迈克·梅尔斯置于火海陷阱之后,麦克成功脱逃,继续他的杀戮,并一路杀到他的故乡——哈顿费尔德(Haddonfield),洛莉三人只能再次为抗击麦克做好准备。她们在鼓动当地民众的同时,与首起屠杀的幸存者组成一支义勇团队,誓在当晚将这位杀人狂魔就地正法。


迅雷下载资源速度为零,资源敏感或被和谐时,推荐使用qBittorrent等无限速下载软件,有条件的推荐115更好的下载软件!
Video
ID : 1
Format : HEVC
Format/Info : High Efficiency Video Coding
Format profile : Main 10@L5@High
Codec ID : V_MPEGH/ISO/HEVC
Duration : 1 h 45 min
Bit rate : 12.1 Mb/s
Width : 3 840 pixels
Height : 1 604 pixels
Display aspect ratio : 2.40:1
Frame rate mode : Constant
Frame rate : 23.976 (24000/1001/189150) FPS
Color space : YUV
Chroma subsampling : 4:2:0
Bit depth : 10 bits
Bits/(Pixel*Frame) : 0.082
Stream size : 8.85 GiB (94%)
Default : Yes
Forced : No
Color range : Limited
Color primaries : BT.709
Transfer characteristics : BT.709
Matrix coefficients : BT.709

Audio
ID : 2
Format : E-AC-3 JOC
Format/Info : Enhanced AC-3 with Joint Object Coding
Commercial name : Dolby Digital Plus with Dolby Atmos
Codec ID : A_EAC3
Duration : 1 h 45 min
Bit rate mode : Constant
Bit rate : 768 kb/s
Channel(s) : 6 channels
Channel layout : L R C LFE Ls Rs
Sampling rate : 48.0 kHz
Frame rate : 31.250 FPS (1536 SPF)
Compression mode : Lossy
Stream size : 577 MiB (6%)
Title : English
Language : English
Service kind : Complete Main
Default : No
Forced : No
Complexity index : 16
Number of dynamic objects : 15
Bed channel count : 1 channel
Bed channel configuration : LFE

Text #1
ID : 3
Format : UTF-8
Codec ID : S_TEXT/UTF8
Codec ID/Info : UTF-8 Plain Text
Duration : 1 h 38 min
Bit rate : 54 b/s
Count of elements : 1449
Stream size : 39.3 KiB (0%)
Title : English
Language : English
Default : Yes
Forced : No

Text #2
ID : 4
Format : UTF-8
Codec ID : S_TEXT/UTF8
Codec ID/Info : UTF-8 Plain Text
Duration : 1 h 45 min
Bit rate : 65 b/s
Count of elements : 1874
Stream size : 50.2 KiB (0%)
Title : English [SDH]
Language : English
Default : No
Forced : No

Text #3
ID : 5
Format : UTF-8
Codec ID : S_TEXT/UTF8
Codec ID/Info : UTF-8 Plain Text
Duration : 1 h 44 min
Bit rate : 50 b/s
Count of elements : 1268
Stream size : 38.8 KiB (0%)
Title : French Canadian
Language : French
Default : No
Forced : No

Text #4
ID : 6
Format : UTF-8
Codec ID : S_TEXT/UTF8
Codec ID/Info : UTF-8 Plain Text
Duration : 1 h 44 min
Bit rate : 46 b/s
Count of elements : 1325
Stream size : 35.7 KiB (0%)
Title : Spanish
Language : Spanish
Default : No
Forced : No

游客,如果您要查看本帖隐藏内容请回复

游客,如果您要查看本帖隐藏内容请回复




.


715.png
7151.png

上一篇:老鹰旅馆之夜 / Night at the Eagle Inn (2021) 4K高清版下载
下一篇:路易斯·韦恩的激情人生 (2021) 4K高清版下载
回复

使用道具 举报

1

主题

1301

帖子

3921

积分

4K家园VIP

Rank: 9Rank: 9Rank: 9

积分
3921
发表于 2021-11-4 17:38:36 来自手机 | 显示全部楼层
专业抢沙发的!哈哈
回复 支持 反对

使用道具 举报

0

主题

6718

帖子

1万

积分

4K家园VIP

Rank: 9Rank: 9Rank: 9

积分
15606
发表于 2021-11-4 18:13:36 | 显示全部楼层
太好啦&萬分感謝版主的無私發佈分享%
回复 支持 反对

使用道具 举报

54

主题

1529

帖子

4375

积分

4K家园VIP

Rank: 9Rank: 9Rank: 9

积分
4375
发表于 2021-11-4 19:22:31 | 显示全部楼层
打酱油的人拉,回复下赚取积分
回复 支持 反对

使用道具 举报

3

主题

1571

帖子

4307

积分

4K家园VIP

Rank: 9Rank: 9Rank: 9

积分
4307
发表于 2021-11-4 19:30:12 | 显示全部楼层
感谢分享
回复 支持 反对

使用道具 举报

2

主题

1310

帖子

3750

积分

4K家园VIP

Rank: 9Rank: 9Rank: 9

积分
3750
发表于 2021-11-4 19:40:13 来自手机 | 显示全部楼层
4K电影下个试试
回复 支持 反对

使用道具 举报

2

主题

1681

帖子

4673

积分

4K家园VIP

Rank: 9Rank: 9Rank: 9

积分
4673
发表于 2021-11-4 21:05:04 | 显示全部楼层
4K应该不错,我也下个看看
回复 支持 反对

使用道具 举报

0

主题

1

帖子

6

积分

新手上路

Rank: 1

积分
6
发表于 2021-11-5 06:13:06 | 显示全部楼层

PND34

PND34.ru PND tube
回复 支持 反对

使用道具 举报

0

主题

2

帖子

33

积分

新手上路

Rank: 1

积分
33
发表于 2021-11-5 22:31:23 | 显示全部楼层
太好啦&萬分感謝版主的無私發佈分享%
回复 支持 反对

使用道具 举报

0

主题

2

帖子

12

积分

4K家园VIP

Rank: 9Rank: 9Rank: 9

积分
12
发表于 2021-11-6 16:58:40 | 显示全部楼层
太棒了!!!赞赞赞
回复 支持 反对

使用道具 举报

您需要登录后才可以回帖 登录 | 立即注册

本版积分规则

精彩图文
Archiver|手机版|TAG|Sitemap|新帖|专题|联系我们:邮箱: 4kjia.com@gmail.com   

4k家园   ©2019