[国家地理] [4K国家地理] 沙漠中的迪拜 (2021) [2160P/MKV/268MB]

[复制链接]

2664

主题

2998

帖子

2万

积分

超级版主

Rank: 8Rank: 8

积分
25020
 楼主| 发表于 2021-12-7 14:30:00 | 显示全部楼层 |阅读模式
本帖最后由 叽里呱啦 于 2021-12-7 10:42 编辑

迪拜(268MB) (2021) WEBRip 2160p.mkv_20211108_134841.179.jpg 迪拜(268MB) (2021) WEBRip 2160p.mkv_20211108_134900.683.jpg 迪拜(268MB) (2021) WEBRip 2160p.mkv_20211108_135058.860.jpg 迪拜(268MB) (2021) WEBRip 2160p.mkv_20211108_135108.155.jpg 迪拜(268MB) (2021) WEBRip 2160p.mkv_20211108_135115.852.jpg 迪拜(268MB) (2021) WEBRip 2160p.mkv_20211108_135123.283.jpg

电影信息
标题:迪拜
上映年份: 2021
国家:阿联酋
工作室: Reel Sky
持续时间: 00 : 02 : 50
类型: 电影物种

简介:

        当我们开始这次 FPV 旅程时,几乎不知道它会有多令人兴奋,可以肯定地说,我们觉得我们真的飞到了最这个星球必须提供的美丽地方。


General
Complete name                  : H:\4K@国家地里 \迪拜(268MB) (2021) WEBRip 2160p.mkv
Format                         : Matroska
Format version                 : Version 4
File size                      : 270 MiB
Duration                       : 2 min 50 s
Overall bit rate               : 13.3 Mb/s
Encoded date                   : UTC 2021-09-23 16:02:45
Writing application            : mkvmerge v61.0.0 ('So') 64-bit
Writing library                : libebml v1.4.2 + libmatroska v1.6.4 / Lavf58.29.100

Video
ID                             : 1
Format                         : VP9
Codec ID                       : V_VP9
Duration                       : 2 min 50 s
Bit rate                       : 13.1 Mb/s
Width                          : 3 840 pixels
Height                         : 2 160 pixels
Display aspect ratio           : 16:9
Frame rate mode                : Constant
Frame rate                     : 29.970 (30000/1001) FPS
Color space                    : YUV
Bits/(Pixel*Frame)             : 0.053
Stream size                    : 267 MiB (99%)
Default                        : Yes
Forced                         : No
Color range                    : Limited
Color primaries                : BT.709
Transfer characteristics       : BT.709
Matrix coefficients            : BT.709

Audio
ID                             : 2
Format                         : Opus
Codec ID                       : A_OPUS
Duration                       : 2 min 50 s
Bit rate                       : 132 kb/s
Channel(s)                     : 2 channels
Channel layout                 : L R
Sampling rate                  : 48.0 kHz
Frame rate                     : 50.001 FPS (960 SPF)
Bit depth                      : 32 bits
Compression mode               : Lossy
Stream size                    : 2.67 MiB (1%)
Default                        : Yes
Forced                         : No

下载地址


****此区域为收费内容****    需支付 15 金币后可查看立即购买




.

上一篇:[4K国家地理] 寒冷的拉普兰 (2021) [2160P/MKV/333MB]
下一篇:[4K国家地理] 风景如画的克尔科诺谢山脉 (2021) [2160P/MKV/549MB]
回复

使用道具 举报

3

主题

1303

帖子

3927

积分

4K家园VIP

Rank: 9Rank: 9Rank: 9

积分
3927
发表于 2021-12-7 14:30:06 | 显示全部楼层
都不知道说的啥
回复 支持 反对

使用道具 举报

0

主题

7280

帖子

1万

积分

4K家园VIP

Rank: 9Rank: 9Rank: 9

积分
16651
发表于 2021-12-7 18:17:13 | 显示全部楼层
太好啦&萬分感謝版主的無私發佈分享%
回复 支持 反对

使用道具 举报

3

主题

1634

帖子

4470

积分

4K家园VIP

Rank: 9Rank: 9Rank: 9

积分
4470
发表于 2021-12-7 20:05:00 | 显示全部楼层
4K应该不错,我也下个看看
回复 支持 反对

使用道具 举报

1

主题

1247

帖子

3759

积分

4K家园VIP

Rank: 9Rank: 9Rank: 9

积分
3759
发表于 2021-12-7 23:07:45 | 显示全部楼层
楼猪V5啊
回复 支持 反对

使用道具 举报

201

主题

1695

帖子

4645

积分

4K家园VIP

Rank: 9Rank: 9Rank: 9

积分
4645
发表于 2021-12-8 05:19:22 | 显示全部楼层
这么强,支持楼主,佩服
回复 支持 反对

使用道具 举报

5

主题

1346

帖子

4064

积分

4K家园VIP

Rank: 9Rank: 9Rank: 9

积分
4064
发表于 2021-12-8 08:40:20 来自手机 | 显示全部楼层
大人,此事必有蹊跷!
回复 支持 反对

使用道具 举报

您需要登录后才可以回帖 登录 | 立即注册

本版积分规则

精彩图文
Archiver|手机版|TAG|Sitemap|新帖|专题|联系我们:邮箱: 4kjia.com@gmail.com   

4k家园   ©2019