[4K MV] 2021 TAEYEON - Weekend 4k [2160P/MP4/275MB]

[复制链接]

2609

主题

2943

帖子

2万

积分

超级版主

Rank: 8Rank: 8

积分
24510
 楼主| 发表于 2021-11-14 20:41:28 | 显示全部楼层 |阅读模式
[DLKOO.me]TAEYEON - Weekend 4k.mp4_20211108_141216.164_副本.jpg [DLKOO.me]TAEYEON - Weekend 4k.mp4_20211108_141242.324_副本.jpg [DLKOO.me]TAEYEON - Weekend 4k.mp4_20211108_141256.443_副本.jpg [DLKOO.me]TAEYEON - Weekend 4k.mp4_20211108_141309.476_副本.jpg [DLKOO.me]TAEYEON - Weekend 4k.mp4_20211108_141325.787_副本.jpg [DLKOO.me]TAEYEON - Weekend 4k.mp4_20211108_141338.788_副本.jpg
General
Complete name                  : E:\4K@MV\最新下载MV\2021 TAEYEON - Weekend 4k.mp4
Format                         : MPEG-4
Format profile                 : Base Media
Codec ID                       : isom (isom/iso2/avc1/mp41)
File size                      : 275 MiB
Duration                       : 4 min 6 s
Overall bit rate               : 9 357 kb/s
Writing application            : Lavf58.12.100
exvr                           : EX1.8.2(C1.0.9)

Video
ID                             : 1
Format                         : AVC
Format/Info                    : Advanced Video Codec
Format profile                 : High@L5.1
Format settings                : CABAC / 4 Ref Frames
Format settings, CABAC         : Yes
Format settings, Reference fra : 4 frames
Codec ID                       : avc1
Codec ID/Info                  : Advanced Video Coding
Duration                       : 4 min 6 s
Bit rate                       : 9 161 kb/s
Width                          : 3 840 pixels
Height                         : 2 160 pixels
Display aspect ratio           : 16:9
Frame rate mode                : Constant
Frame rate                     : 24.000 FPS
Color space                    : YUV
Chroma subsampling             : 4:2:0
Bit depth                      : 8 bits
Scan type                      : Progressive
Bits/(Pixel*Frame)             : 0.046
Stream size                    : 269 MiB (98%)
Color range                    : Limited
Color primaries                : BT.709
Transfer characteristics       : BT.709
Matrix coefficients            : BT.709
Codec configuration box        : avcC

Audio
ID                             : 2
Format                         : AAC LC
Format/Info                    : Advanced Audio Codec Low Complexity
Codec ID                       : mp4a-40-2
Duration                       : 4 min 6 s
Bit rate mode                  : Constant
Bit rate                       : 192 kb/s
Channel(s)                     : 2 channels
Channel layout                 : L R
Sampling rate                  : 48.0 kHz
Frame rate                     : 46.875 FPS (1024 SPF)
Compression mode               : Lossy
Stream size                    : 5.65 MiB (2%)
Default                        : Yes
Alternate group                : 1



网盘下载失效不补:链接: https://pan.baidu.com/s/13sJZBcvc6vV5NUKfPQbKow 提取码:
****此区域为收费内容****    需支付 15 金币后可查看立即购买


提供2010-2021年[4K、8K、16K(25-120fps)]高品质MV、演示片、测试片等珍藏版视频硬盘有偿拷贝工作,最新4K视频每天更新中,需要的联系本楼主!




上一篇:[4K MV] 2021 AleXa - Xtra (Performance Ver) 4k [2160P/MP4/401MB]
下一篇:[4K MV] 2021 SORN - RUN 4k [2160P/MP4/382MB]
回复

使用道具 举报

52

主题

1436

帖子

4138

积分

4K家园VIP

Rank: 9Rank: 9Rank: 9

积分
4138
发表于 2021-11-14 20:41:36 | 显示全部楼层
撸过
回复 支持 反对

使用道具 举报

0

主题

4

帖子

33

积分

4K家园VIP

Rank: 9Rank: 9Rank: 9

积分
33
发表于 2021-11-15 21:51:22 | 显示全部楼层
谢谢楼主!
回复

使用道具 举报

48

主题

1553

帖子

4471

积分

4K家园VIP

Rank: 9Rank: 9Rank: 9

积分
4471
发表于 2021-11-19 20:05:41 | 显示全部楼层
前排顶,很好!
回复 支持 反对

使用道具 举报

0

主题

2

帖子

9

积分

新手上路

Rank: 1

积分
9
发表于 2021-11-20 10:23:56 | 显示全部楼层
挺好的,,支持
回复 支持 反对

使用道具 举报

62

主题

1549

帖子

4481

积分

4K家园VIP

Rank: 9Rank: 9Rank: 9

积分
4481
发表于 2021-11-20 10:34:08 | 显示全部楼层
为了三千积分!
回复 支持 反对

使用道具 举报

49

主题

1431

帖子

4099

积分

4K家园VIP

Rank: 9Rank: 9Rank: 9

积分
4099
发表于 2021-11-25 08:33:17 | 显示全部楼层
感谢楼主发帖,前排顶起
回复 支持 反对

使用道具 举报

2

主题

1681

帖子

4673

积分

4K家园VIP

Rank: 9Rank: 9Rank: 9

积分
4673
发表于 2021-11-25 18:07:52 | 显示全部楼层
这个资源我记得是一套的,楼主还有没有
回复 支持 反对

使用道具 举报

您需要登录后才可以回帖 登录 | 立即注册

本版积分规则

精彩图文
Archiver|手机版|TAG|Sitemap|新帖|专题|联系我们:邮箱: 4kjia.com@gmail.com   

4k家园   ©2019