[4K MV] 2021 SORN - RUN 4k [2160P/MP4/382MB]

[复制链接]

2652

主题

2986

帖子

2万

积分

超级版主

Rank: 8Rank: 8

积分
24945
 楼主| 发表于 2021-12-2 10:47:37 | 显示全部楼层 |阅读模式
SORN - RUN 4k.mp4_20211108_142809.076.jpg SORN - RUN 4k.mp4_20211108_142628.012.jpg SORN - RUN 4k.mp4_20211108_142644.252.jpg SORN - RUN 4k.mp4_20211108_142653.267.jpg SORN - RUN 4k.mp4_20211108_142732.220.jpg SORN - RUN 4k.mp4_20211108_142740.508.jpg

General
Format                         : MPEG-4
Format profile                 : Base Media
Codec ID                       : isom (isom/iso2/avc1/mp41)
File size                      : 383 MiB
Duration                       : 3 min 7 s
Overall bit rate               : 17.2 Mb/s
Writing application            : Lavf58.12.100
exvr                           : EX1.8.2(C1.0.9)

Video
ID                             : 1
Format                         : AVC
Format/Info                    : Advanced Video Codec
Format profile                 : High@L5.1
Format settings                : CABAC / 4 Ref Frames
Format settings, CABAC         : Yes
Format settings, Reference fra : 4 frames
Codec ID                       : avc1
Codec ID/Info                  : Advanced Video Coding
Duration                       : 3 min 7 s
Bit rate                       : 17.0 Mb/s
Width                          : 3 840 pixels
Height                         : 2 160 pixels
Display aspect ratio           : 16:9
Frame rate mode                : Constant
Frame rate                     : 23.976 (23976/1000) FPS
Color space                    : YUV
Chroma subsampling             : 4:2:0
Bit depth                      : 8 bits
Scan type                      : Progressive
Bits/(Pixel*Frame)             : 0.085
Stream size                    : 378 MiB (99%)
Codec configuration box        : avcC

Audio
ID                             : 2
Format                         : AAC LC
Format/Info                    : Advanced Audio Codec Low Complexity
Codec ID                       : mp4a-40-2
Duration                       : 3 min 7 s
Bit rate mode                  : Constant
Bit rate                       : 192 kb/s
Channel(s)                     : 2 channels
Channel layout                 : L R
Sampling rate                  : 48.0 kHz
Frame rate                     : 46.875 FPS (1024 SPF)
Compression mode               : Lossy
Stream size                    : 4.28 MiB (1%)
Default                        : Yes
Alternate group                : 1

网盘下载失效不补:链接: https://pan.baidu.com/s/1nai8etY80Je8KFthC1DM1Q 提取码:
****此区域为收费内容****    需支付 15 金币后可查看立即购买


提供2010-2021年[4K、8K、16K(25-120fps)]高品质MV、演示片、测试片等珍藏版视频硬盘有偿拷贝工作,最新4K视频每天更新中,需要的联系本楼主!




.

上一篇:[4K MV] 2021 TAEYEON - Weekend 4k [2160P/MP4/275MB]
下一篇:[4K MV] 2021 Golden Child - Breathe 4k [2160P/MP4/355MB]
回复

使用道具 举报

1

主题

1336

帖子

3796

积分

4K家园VIP

Rank: 9Rank: 9Rank: 9

积分
3796
发表于 2021-12-2 10:47:50 | 显示全部楼层
珍爱生命,果断回帖。
回复 支持 反对

使用道具 举报

1

主题

1307

帖子

3937

积分

4K家园VIP

Rank: 9Rank: 9Rank: 9

积分
3937
发表于 2021-12-3 04:36:19 | 显示全部楼层
珍爱生命,果断回帖。
回复 支持 反对

使用道具 举报

5

主题

1326

帖子

3830

积分

中级会员

Rank: 4

积分
3830
发表于 2021-12-7 19:49:38 | 显示全部楼层
撸过
回复 支持 反对

使用道具 举报

6

主题

1618

帖子

4442

积分

中级会员

Rank: 4

积分
4442
发表于 2021-12-8 23:08:18 | 显示全部楼层
谢谢楼主
回复 支持 反对

使用道具 举报

1

主题

1363

帖子

3933

积分

4K家园VIP

Rank: 9Rank: 9Rank: 9

积分
3933
发表于 2021-12-9 00:17:15 | 显示全部楼层
站位支持
回复 支持 反对

使用道具 举报

0

主题

5

帖子

21

积分

新手上路

Rank: 1

积分
21
发表于 2021-12-20 11:08:30 | 显示全部楼层
111111111111111111111
回复 支持 反对

使用道具 举报

您需要登录后才可以回帖 登录 | 立即注册

本版积分规则

精彩图文
Archiver|手机版|TAG|Sitemap|新帖|专题|联系我们:邮箱: 4kjia.com@gmail.com   

4k家园   ©2019