[4K MV] 2021 Golden Child - Breathe 4k [2160P/MP4/355MB]

[复制链接]

2652

主题

2986

帖子

2万

积分

超级版主

Rank: 8Rank: 8

积分
24945
 楼主| 发表于 2022-1-6 20:39:02 | 显示全部楼层 |阅读模式
[DLKOO.me]Golden Child - Breathe 4k.mp4_20211108_143401.851.jpg [DLKOO.me]Golden Child - Breathe 4k.mp4_20211108_143407.844.jpg [DLKOO.me]Golden Child - Breathe 4k.mp4_20211108_143440.724.jpg [DLKOO.me]Golden Child - Breathe 4k.mp4_20211108_143451.348.jpg [DLKOO.me]Golden Child - Breathe 4k.mp4_20211108_143458.684.jpg [DLKOO.me]Golden Child - Breathe 4k.mp4_20211108_143503.116.jpg

General
Complete name                  : E:\4K@MV\最新下载MV\Golden Child - Breathe 4k.mp4
Format                         : MPEG-4
Format profile                 : Base Media
Codec ID                       : isom (isom/iso2/avc1/mp41)
File size                      : 355 MiB
Duration                       : 3 min 40 s
Overall bit rate               : 13.5 Mb/s
Writing application            : Lavf58.12.100
exvr                           : EX1.8.2(C1.0.9)

Video
ID                             : 1
Format                         : AVC
Format/Info                    : Advanced Video Codec
Format profile                 : High@L5.1
Format settings                : CABAC / 4 Ref Frames
Format settings, CABAC         : Yes
Format settings, Reference fra : 4 frames
Codec ID                       : avc1
Codec ID/Info                  : Advanced Video Coding
Duration                       : 3 min 40 s
Bit rate                       : 13.3 Mb/s
Width                          : 3 840 pixels
Height                         : 2 160 pixels
Display aspect ratio           : 16:9
Frame rate mode                : Constant
Frame rate                     : 23.976 (23976/1000) FPS
Color space                    : YUV
Chroma subsampling             : 4:2:0
Bit depth                      : 8 bits
Scan type                      : Progressive
Bits/(Pixel*Frame)             : 0.067
Stream size                    : 350 MiB (99%)
Color range                    : Limited
Color primaries                : BT.709
Transfer characteristics       : BT.709
Matrix coefficients            : BT.709
Codec configuration box        : avcC

Audio
ID                             : 2
Format                         : AAC LC
Format/Info                    : Advanced Audio Codec Low Complexity
Codec ID                       : mp4a-40-2
Duration                       : 3 min 40 s
Bit rate mode                  : Constant
Bit rate                       : 192 kb/s
Channel(s)                     : 2 channels
Channel layout                 : L R
Sampling rate                  : 48.0 kHz
Frame rate                     : 46.875 FPS (1024 SPF)
Compression mode               : Lossy
Stream size                    : 5.06 MiB (1%)
Default                        : Yes
Alternate group                : 1

网盘下载失效不补:链接: https://pan.baidu.com/s/1_o0D-1K8-9o74dt3rayo0g 提取码:
****此区域为收费内容****    需支付 15 金币后可查看立即购买


提供2010-2021年[4K、8K、16K(25-120fps)]高品质MV、演示片、测试片等珍藏版视频硬盘有偿拷贝工作,最新4K视频每天更新中,需要的联系本楼主!




.

上一篇:[4K MV] 2021 SORN - RUN 4k [2160P/MP4/382MB]
下一篇:[4K MV] 2021 Golden Child - Breathe (Choreography ver.) 4k [2160P/MP4/436MB]
回复

使用道具 举报

195

主题

1552

帖子

4258

积分

4K家园VIP

Rank: 9Rank: 9Rank: 9

积分
4258
发表于 2022-1-6 20:39:06 | 显示全部楼层
在撸一遍。。。
回复 支持 反对

使用道具 举报

4

主题

1401

帖子

4047

积分

4K家园VIP

Rank: 9Rank: 9Rank: 9

积分
4047
发表于 3 天前 | 显示全部楼层
路过 帮顶 嘿嘿
回复 支持 反对

使用道具 举报

40

主题

1469

帖子

4213

积分

4K家园VIP

Rank: 9Rank: 9Rank: 9

积分
4213
发表于 昨天 10:26 | 显示全部楼层
高手啊
回复 支持 反对

使用道具 举报

您需要登录后才可以回帖 登录 | 立即注册

本版积分规则

精彩图文
Archiver|手机版|TAG|Sitemap|新帖|专题|联系我们:邮箱: 4kjia.com@gmail.com   

4k家园   ©2019