[4K MV] 2021 Golden Child - Breathe (Choreography ver.) 4k [2160P/MP4/436MB]

[复制链接]

2664

主题

2998

帖子

2万

积分

超级版主

Rank: 8Rank: 8

积分
25020
 楼主| 发表于 2021-11-27 15:23:52 | 显示全部楼层 |阅读模式
2021 Golden Child - Breathe (Choreography ver.) 4k.mp4_20211108_144137.540.jpg 2021 Golden Child - Breathe (Choreography ver.) 4k.mp4_20211108_144146.492.jpg 2021 Golden Child - Breathe (Choreography ver.) 4k.mp4_20211108_144154.148.jpg 2021 Golden Child - Breathe (Choreography ver.) 4k.mp4_20211108_144200.076.jpg 2021 Golden Child - Breathe (Choreography ver.) 4k.mp4_20211108_144226.468.jpg

General
Complete name                  : E:\4K@MV\最新下载MV\2021 Golden Child - Breathe (Choreography ver.) 4k.mp4
Format                         : MPEG-4
Format profile                 : Base Media
Codec ID                       : isom (isom/iso2/avc1/mp41)
File size                      : 436 MiB
Duration                       : 3 min 30 s
Overall bit rate               : 17.3 Mb/s
Writing application            : Lavf58.12.100
exvr                           : EX1.8.2(C1.0.9)

Video
ID                             : 1
Format                         : AVC
Format/Info                    : Advanced Video Codec
Format profile                 : High@L5.1
Format settings                : CABAC / 4 Ref Frames
Format settings, CABAC         : Yes
Format settings, Reference fra : 4 frames
Codec ID                       : avc1
Codec ID/Info                  : Advanced Video Coding
Duration                       : 3 min 30 s
Bit rate                       : 17.1 Mb/s
Width                          : 3 840 pixels
Height                         : 2 160 pixels
Display aspect ratio           : 16:9
Frame rate mode                : Constant
Frame rate                     : 23.976 (23976/1000) FPS
Color space                    : YUV
Chroma subsampling             : 4:2:0
Bit depth                      : 8 bits
Scan type                      : Progressive
Bits/(Pixel*Frame)             : 0.086
Stream size                    : 431 MiB (99%)
Color range                    : Limited
Color primaries                : BT.709
Transfer characteristics       : BT.709
Matrix coefficients            : BT.709
Codec configuration box        : avcC

Audio
ID                             : 2
Format                         : AAC LC
Format/Info                    : Advanced Audio Codec Low Complexity
Codec ID                       : mp4a-40-2
Duration                       : 3 min 30 s
Bit rate mode                  : Constant
Bit rate                       : 192 kb/s
Channel(s)                     : 2 channels
Channel layout                 : L R
Sampling rate                  : 48.0 kHz
Frame rate                     : 46.875 FPS (1024 SPF)
Compression mode               : Lossy
Stream size                    : 4.83 MiB (1%)
Default                        : Yes
Alternate group                : 1

网盘下载失效不补:链接: https://pan.baidu.com/s/1qgFQ9DV9eaANqBy8eF0zSQ 提取码:
****此区域为收费内容****    需支付 15 金币后可查看立即购买


提供2010-2021年[4K、8K、16K(25-120fps)]高品质MV、演示片、测试片等珍藏版视频硬盘有偿拷贝工作,最新4K视频每天更新中,需要的联系本楼主!


.

2021 Golden Child - Breathe (Choreography ver.) 4k.mp4_20211108_144214.676.jpg

上一篇:[4K MV] 2021 Golden Child - Breathe 4k [2160P/MP4/355MB]
下一篇:[4K MV] 2021 IU - 草莓月亮 4k [2160P/MP4/807MB]
回复

使用道具 举报

0

主题

1294

帖子

3900

积分

4K家园VIP

Rank: 9Rank: 9Rank: 9

积分
3900
发表于 2021-11-27 15:24:20 | 显示全部楼层
鼎力支持!!
回复 支持 反对

使用道具 举报

4

主题

1272

帖子

3836

积分

4K家园VIP

Rank: 9Rank: 9Rank: 9

积分
3836
发表于 2021-11-27 15:24:20 | 显示全部楼层
哈哈,我只看看不说话
回复 支持 反对

使用道具 举报

1

主题

1385

帖子

4009

积分

4K家园VIP

Rank: 9Rank: 9Rank: 9

积分
4009
发表于 2021-11-27 20:40:49 | 显示全部楼层
分享的不错,希望楼主继续分享
回复 支持 反对

使用道具 举报

53

主题

1474

帖子

4290

积分

4K家园VIP

Rank: 9Rank: 9Rank: 9

积分
4290
发表于 2021-11-28 00:13:41 | 显示全部楼层
4K版的应该更清晰吧
回复 支持 反对

使用道具 举报

41

主题

1498

帖子

4292

积分

4K家园VIP

Rank: 9Rank: 9Rank: 9

积分
4292
发表于 2021-11-29 13:07:24 | 显示全部楼层
看起来不错
回复 支持 反对

使用道具 举报

0

主题

689

帖子

2408

积分

注册会员

Rank: 2

积分
2408
发表于 2022-1-4 15:54:44 | 显示全部楼层
谢谢楼主分享
回复 支持 反对

使用道具 举报

0

主题

52

帖子

189

积分

新手上路

Rank: 1

积分
189
发表于 昨天 21:39 | 显示全部楼层

分享的不错,希望楼主继续分享
回复 支持 反对

使用道具 举报

您需要登录后才可以回帖 登录 | 立即注册

本版积分规则

精彩图文
Archiver|手机版|TAG|Sitemap|新帖|专题|联系我们:邮箱: 4kjia.com@gmail.com   

4k家园   ©2019