[4K电影] 007:无暇赴死 / No Time to Die (2021) 4K高清版下载

    [复制链接]

2157

主题

2300

帖子

1万

积分

超级版主

Rank: 8Rank: 8

积分
16831
 楼主| 发表于 2021-11-9 14:04:04 | 显示全部楼层 |阅读模式
本帖最后由 最爱4K哟 于 2021-11-11 19:37 编辑

QQ图片20211109142528_副本.png

◎译  名 007:无暇赴死 /  007:生死有时(港) / 007:生死交战(台) / 007:间不容死 / 邦德25 / 007:没空去死(豆友译名) / James Bond 25 / Never Dream of Dying / Shatterhand
◎片  名 No Time to Die
◎年  代 2021
◎产  地 美国
◎类  别 动作 / 惊悚 / 冒险
◎语  言   英语 / 法语 / 意大利语 / 俄语 / 西班牙语
◎上映日期 2021-10-29(中国大陆) / 2021-09-30(英国) / 2021-10-08(美国)
◎IMDb评分  7.5/10 from 149518 users
◎IMDb链接  https://www.imdb.com/title/tt2382320/
◎豆瓣评分 6.9/10 from 114843 users
◎豆瓣链接 https://movie.douban.com/subject/20276229/
◎片  长 164分钟
◎导  演 凯瑞·福永
◎编  剧 尼尔·珀维斯 / 罗伯特·韦德 / 凯瑞·福永 / 菲比·沃勒-布里奇 / 伊恩·弗莱明
◎主  演 丹尼尔·克雷格 Daniel Craig
      拉米·马雷克 Rami Malek
      蕾雅·赛杜 Léa Seydoux
      安娜·德·阿玛斯 Ana de Armas
      拉什纳·林奇 Lashana Lynch
      拉尔夫·费因斯 Ralph Fiennes
      本·卫肖 Ben Whishaw
      丽莎-朵拉·桑尼 Lisa-Dorah Sonnet
      娜奥米·哈里斯 Naomie Harris
      罗里·金尼尔 Rory Kinnear
      杰弗里·怀特 Jeffrey Wright
      比利·马格努森 Billy Magnussen
      克里斯托弗·瓦尔兹 Christoph Waltz
      大卫·丹席克 David Dencik
      达利·本萨拉赫 Dali Benssalah
      休·丹尼斯 Hugh Dennis
      普莉安卡·伯福德 Priyanga Burford
      皮奥·阿马托 Pio Amato
      贾文?普林斯 Javone Prince
      Amy Morgan Amy Morgan
      洛德斯·法比尔斯 Lourdes Faberes
      菲利普·菲尔玛 Philip Philmar
      Raymond Waring Raymond Waring
      可可·萨姆纳 Coco Sumner
      戈登·亚历山大 Gordon Alexander
      戴维·奥拉瓦莱·阿印德 David Olawale Ayinde
      安德鲁·G·奥格尔比 Andrew G. Ogleby
      吉安尼·卡尔切蒂 Gianni Calchetti
      通恰伊·古奈什 Tuncay Gunes
      泰·赫尔利 Ty Hurley
      拉普洛斯·卡伦福佐斯 Lampros Kalfuntzos
      马里安·洛伦西克 Marian Lorencik
      朱利安·费罗 Julian Ferro


◎简  介

  世界局势波诡云谲,再度出山的邦德(丹尼尔·克雷格 饰)面临有史以来空前的危机,传奇特工007的故事在本片中达到高潮。新老角色集结亮相,蕾雅·赛杜回归,二度饰演邦女郎玛德琳。系列最恐怖反派萨芬(拉米·马雷克 饰)重磅登场,毫不留情地展示了自己狠辣的一面,不仅揭开了玛德琳身上隐藏的秘密,还酝酿着危及数百万人性命的阴谋,幽灵党的身影也似乎再次浮出水面。半路杀出的新00号特工(拉什纳·林奇 饰)与神秘女子(安娜·德·阿玛斯 饰)看似与邦德同阵作战,但其真实目的依然成谜。关乎邦德生死的新仇旧怨接踵而至,暗潮汹涌之下他能否拯救世界?

◎获奖情况

  第7届豆瓣电影年度榜单 ?(2020)
  最值得期待的外语电影(提名)
Complete name                  : E:\4K@电影 No.Time.to.Die.2021.2160p.WEB-DL.DDP5.1.Atmos.DV.MP4.x265-NOTIMETOCRY.mp4
Format                         : MPEG-4
Format profile                 : Base Media / Version 2
Codec ID                       : mp42 (isom/mp42/dby1)
File size                      : 14.0 GiB
Duration                       : 2 h 43 min
Overall bit rate mode          : Variable
Overall bit rate               : 12.3 Mb/s
Encoded date                   : UTC 2021-11-09 05:26:41
Tagged date                    : UTC 2021-11-09 05:26:41
Writing application            : GPAC-1.1.0-DEV-rev1248-g3e4a34873-master
IsTruncated                    : Yes

Video
ID                             : 1
Format                         : HEVC
Format/Info                    : High Efficiency Video Coding
Format profile                 : Main 10@L5@High
HDR format                     : Dolby Vision, Version 1.0, dvhe.05.06, BL+RPU
Codec ID                       : dvhe
Codec ID/Info                  : High Efficiency Video Coding with Dolby Vision
Duration                       : 2 h 43 min
Bit rate                       : 24.5 Mb/s
Width                          : 3 832 pixels
Height                         : 1 600 pixels
Original height                : 1 596 pixels
Display aspect ratio           : 2.40:1
Original display aspect ratio  : 2.40:1
Frame rate mode                : Constant
Frame rate                     : 23.976 (24000/1001) FPS
Color space                    : YUV
Chroma subsampling             : 4:2:0
Bit depth                      : 10 bits
Bits/(Pixel*Frame)             : 0.166
Stream size                    : 27.9 GiB
Default                        : Yes
Alternate group                : 1
Encoded date                   : UTC 2021-11-09 05:20:38
Tagged date                    : UTC 2021-11-09 05:27:38
Codec configuration box        : hvcC+dvcC

Audio
ID                             : 2
Format                         : E-AC-3 JOC
Format/Info                    : Enhanced AC-3 with Joint Object Coding
Commercial name                : Dolby Digital Plus with Dolby Atmos
Codec ID                       : ec-3
Duration                       : 2 h 43 min
Bit rate mode                  : Constant
Bit rate                       : 768 kb/s
Maximum bit rate               : 811 kb/s
Channel(s)                     : 6 channels
Channel layout                 : L R C LFE Ls Rs
Sampling rate                  : 48.0 kHz
Frame rate                     : 31.250 FPS (1536 SPF)
Compression mode               : Lossy
Stream size                    : 898 MiB (6%)
Title                          : English (UK)
Language                       : English
Service kind                   : Complete Main
Encoded date                   : UTC 2021-11-09 05:04:48
Tagged date                    : UTC 2021-11-09 05:27:38
Complexity index               : Not present / 16
Number of dynamic objects      : 15
Bed channel count              : 1 channel
Bed channel configuration      : LFE

Text #1
ID                             : 3
Format                         : Timed Text
Codec ID                       : tx3g
Duration                       : 2 h 16 min
Bit rate mode                  : Variable
Bit rate                       : 1 b/s
Stream size                    : 1.40 KiB (0%)
Title                          : Forced
Language                       : English
Forced                         : No
Encoded date                   : UTC 2021-11-09 05:27:36
Tagged date                    : UTC 2021-11-09 05:27:38

Text #2
ID                             : 4
Format                         : Timed Text
Codec ID                       : tx3g
Duration                       : 2 h 36 min
Bit rate mode                  : Variable
Bit rate                       : 50 b/s
Stream size                    : 57.8 KiB (0%)
Title                          : English
Language                       : English
Forced                         : No
Encoded date                   : UTC 2021-11-09 05:27:36
Tagged date                    : UTC 2021-11-09 05:27:38

Text #3
ID                             : 5
Format                         : Timed Text
Codec ID                       : tx3g
Duration                       : 2 h 40 min
Bit rate mode                  : Variable
Bit rate                       : 62 b/s
Stream size                    : 73.2 KiB (0%)
Title                          : SDH
Language                       : English
Forced                         : No
Encoded date                   : UTC 2021-11-09 05:27:36
Tagged date                    : UTC 2021-11-09 05:27:38

Text #4
ID                             : 6
Format                         : Timed Text
Codec ID                       : tx3g
Duration                       : 2 h 43 min
Bit rate mode                  : Variable
Bit rate                       : 44 b/s
Stream size                    : 53.0 KiB (0%)
Title                          : Latin American
Language                       : Spanish
Forced                         : No
Encoded date                   : UTC 2021-11-09 05:27:37
Tagged date                    : UTC 2021-11-09 05:27:38

Text #5
ID                             : 7
Format                         : Timed Text
Codec ID                       : tx3g
Duration                       : 2 h 42 min
Bit rate mode                  : Variable
Bit rate                       : 37 b/s
Stream size                    : 44.4 KiB (0%)
Language                       : French
Forced                         : No
Encoded date                   : UTC 2021-11-09 05:27:37
Tagged date                    : UTC 2021-11-09 05:27:38

Text #6
ID                             : 8
Format                         : Timed Text
Codec ID                       : tx3g
Duration                       : 2 h 43 min
Bit rate mode                  : Variable
Bit rate                       : 42 b/s
Stream size                    : 50.7 KiB (0%)
Language                       : Korean
Forced                         : No
Encoded date                   : UTC 2021-11-09 05:27:38
Tagged date                    : UTC 2021-11-09 05:27:38

Menu
00:00:00.000                   : Chapter 1
00:11:57.125                   : Chapter 2
00:27:09.750                   : Chapter 3
00:43:46.000                   : Chapter 4
00:56:58.099                   : Chapter 5
01:04:09.000                   : Chapter 6
01:13:06.500                   : Chapter 7
01:22:28.832                   : Chapter 8
01:33:49.332                   : Chapter 9
01:51:42.000                   : Chapter 10
02:06:54.000                   : Chapter 11
02:25:23.500                   : Chapter 12
02:35:07.000                   : Chapter 13

迅雷下载资源速度为零,资源敏感或被和谐时,推荐使用qBittorrent等无限速下载软件,有条件的推荐115更好的下载软件!

游客,如果您要查看本帖隐藏内容请回复

游客,如果您要查看本帖隐藏内容请回复

游客,如果您要查看本帖隐藏内容请回复

游客,如果您要查看本帖隐藏内容请回复

游客,如果您要查看本帖隐藏内容请回复


外挂中文字幕文件下载:
游客,如果您要查看本帖隐藏内容请回复






.



上一篇:验收测试 / The Beta Test (2021) 4K高清版下载
下一篇:尚气与十环传奇 / Shang (2021) 4K高清版下载
回复

使用道具 举报

52

主题

1483

帖子

4279

积分

4K家园VIP

Rank: 9Rank: 9Rank: 9

积分
4279
发表于 2021-11-9 14:04:11 | 显示全部楼层
差评
回复 支持 反对

使用道具 举报

0

主题

3

帖子

51

积分

新手上路

Rank: 1

积分
51
发表于 2021-11-9 14:27:51 | 显示全部楼层
zhengdehaishijiade
回复 支持 反对

使用道具 举报

0

主题

9

帖子

69

积分

新手上路

Rank: 1

积分
69
发表于 2021-11-9 14:29:34 | 显示全部楼层
高清下载,谢谢分享
回复 支持 反对

使用道具 举报

1

主题

30

帖子

1112

积分

4K家园VIP

Rank: 9Rank: 9Rank: 9

积分
1112
发表于 2021-11-9 14:35:54 来自手机 | 显示全部楼层
115都没缓存完,等不及了啦,哈哈哈哈
回复 支持 反对

使用道具 举报

0

主题

4

帖子

18

积分

新手上路

Rank: 1

积分
18
发表于 2021-11-9 15:00:41 | 显示全部楼层
这么快就有资源了啊
回复 支持 反对

使用道具 举报

0

主题

77

帖子

477

积分

新手上路

Rank: 1

积分
477
发表于 2021-11-9 15:00:51 | 显示全部楼层
上线的真快,感谢分享
回复 支持 反对

使用道具 举报

0

主题

2

帖子

13

积分

新手上路

Rank: 1

积分
13
发表于 2021-11-9 15:04:40 | 显示全部楼层
试一试
回复

使用道具 举报

0

主题

2

帖子

26

积分

新手上路

Rank: 1

积分
26
发表于 2021-11-9 15:14:01 | 显示全部楼层
,jdnvfdngfmhg,mhg,gc
回复 支持 反对

使用道具 举报

0

主题

21

帖子

220

积分

4K家园VIP

Rank: 9Rank: 9Rank: 9

积分
220
发表于 2021-11-9 15:15:44 | 显示全部楼层

高清下载,谢谢分享
回复 支持 反对

使用道具 举报

您需要登录后才可以回帖 登录 | 立即注册

本版积分规则

精彩图文
Archiver|手机版|TAG|Sitemap|新帖|专题|联系我们:邮箱: 4kjia.com@gmail.com   

4k家园   ©2019