[4Kjia独享4K资源] 大红狗克里弗 / Clifford the Big Red Dog (2021) 4K高清版下载

[复制链接]

1134

主题

1211

帖子

9841

积分

超级版主

Rank: 8Rank: 8

积分
9841
 楼主| 发表于 2021-11-10 16:44:32 | 显示全部楼层 |阅读模式
本帖最后由 最爱4K哟 于 2021-11-11 09:38 编辑

QQ图片20211110164328_副本.png

◎译  名 大红狗克里弗 / 赤BIG灵灵狗(港)
◎片  名 Clifford the Big Red Dog
◎年  代 2021
◎产  地 英国 / 加拿大 / 美国
◎类  别 喜剧 / 爱情 / 动画 / 奇幻 / 冒险
◎语  言   英语
◎上映日期 2021-11-10(美国)
◎IMDb评分  7.5/10 from 54 users
◎IMDb链接  https://www.imdb.com/title/tt2397461
◎豆瓣评分 0/10 from 0 users
◎豆瓣链接 https://movie.douban.com/subject/23774832/
◎片  长 97分钟
◎导  演 沃尔特·拜克
◎编  剧 杰·舒瑞克 / 大卫·隆恩 / Blaise Hemingway / 麦弘文 / Ellen Rapoport / Norman Bridwell
◎主  演 大卫·艾兰·格里尔
                   达比·坎普
                   杰克·怀特霍尔
                   伊扎克·王
                   约翰·克里斯
                   西耶娜·盖尔利
                   托尼·海尔
                   霍拉提奥·桑斯
                  保罗·罗德里奇斯
                  拉塞尔·皮特斯
                  Keith Ewell
                  Bear Allen Blaine
                  托芙·菲尔德舒
                  杰西卡·基南·温
                  Ty Jones
                 王盛德
                 希博汗·法隆
                 雅莎·杰克逊
                 亚历克斯·莫法特
                 基南·汤普森
                 罗茜·佩雷兹
                 安娜贝尔·布莱特
                 Neil Hellegers
                 凯伦·琳恩·高妮
                 杰克逊·弗雷泽
                丹妮尔·古尔丁
                亚历山德拉·艾布拉姆斯
                梅兰妮·钱德拉
               卡伦·科尔
                罗比·德拉费勒
                桃乐丝·麦卡锡
                莎莉·谢巴德
               汤姆·斯特拉特福



◎简  介


        该片由《鼠来宝4:萌在囧途》导演沃尔特·拜克执导,改编自同名畅销童书《Clifford the Big Red Dog》,讲述在纽约,小女孩Emily Elizabeth(达比·坎普饰演)得到了一条小狗,这只名叫Clifford的红色狗子乖巧可爱,成为了在学校不合群、孤独的她的好朋友。但狗狗慢慢长成了庞然大物,被一家生物基因公司看上了,Emily和叔叔Casy(杰克·怀特霍尔)必须带着它逃开贪婪之人的追捕。
General
Complete name                  : E:\4K@电影\Clifford.the.Big.Red.Dog.2021.2160p.WEB-DL.DDP5.1.Atmos.HDR.HEVC-EVO.mkv
Format                         : Matroska
Format version                 : Version 2
File size                      : 10.2 GiB
Duration                       : 1 h 36 min
Overall bit rate               : 15.2 Mb/s
Encoded date                   : UTC 2021-11-10 06:14:22
Writing application            : mkvmerge v35.0.0 ('All The Love In The World') 64-bit
Writing library                : libebml v1.3.9 + libmatroska v1.5.2
IsTruncated                    : Yes

Video
ID                             : 1
Format                         : HEVC
Format/Info                    : High Efficiency Video Coding
Format profile                 : Main 10@L5@High
HDR format                     : SMPTE ST 2094 App 4, Version 1, HDR10+ Profile B compatible
Codec ID                       : V_MPEGH/ISO/HEVC
Duration                       : 1 h 36 min
Bit rate                       : 14.1 Mb/s
Width                          : 3 840 pixels
Height                         : 2 160 pixels
Display aspect ratio           : 16:9
Frame rate mode                : Constant
Frame rate                     : 23.976 (24000/1001) FPS
Color space                    : YUV
Chroma subsampling             : 4:2:0 (Type 2)
Bit depth                      : 10 bits
Bits/(Pixel*Frame)             : 0.071
Stream size                    : 9.49 GiB (93%)
Language                       : English
Default                        : Yes
Forced                         : No
Color range                    : Full
Color primaries                : BT.2020
Transfer characteristics       : PQ
Matrix coefficients            : BT.2020 non-constant
Mastering display color primar : Display P3
Mastering display luminance    : min: 0.0001 cd/m2, max: 1000 cd/m2

Audio
ID                             : 2
Format                         : E-AC-3 JOC
Format/Info                    : Enhanced AC-3 with Joint Object Coding
Commercial name                : Dolby Digital Plus with Dolby Atmos
Codec ID                       : A_EAC3
Duration                       : 1 h 36 min
Bit rate mode                  : Constant
Bit rate                       : 768 kb/s
Channel(s)                     : 6 channels
Channel layout                 : L R C LFE Ls Rs
Sampling rate                  : 48.0 kHz
Frame rate                     : 31.250 FPS (1536 SPF)
Compression mode               : Lossy
Stream size                    : 530 MiB (5%)
Language                       : English
Service kind                   : Complete Main
Default                        : Yes
Forced                         : No
Complexity index               : 16
Number of dynamic objects      : 15
Bed channel count              : 1 channel
Bed channel configuration      : LFE

迅雷下载资源速度为零,资源敏感或被和谐时,推荐使用qBittorrent等无限速下载软件,有条件的推荐115更好的下载软件!

****此区域为收费内容****    需支付 9 金币后可查看立即购买

游客,如果您要查看本帖隐藏内容请回复

游客,如果您要查看本帖隐藏内容请回复



.



上一篇:尚气与十环传奇 / Shang (2021) 4K高清版下载
下一篇:十月建造的房屋 / The Houses October (2014) 4K高清版下载
回复

使用道具 举报

3

主题

1414

帖子

4096

积分

4K家园VIP

Rank: 9Rank: 9Rank: 9

积分
4096
发表于 2021-11-10 16:44:36 来自手机 | 显示全部楼层
不错 支持下
回复 支持 反对

使用道具 举报

0

主题

6718

帖子

1万

积分

4K家园VIP

Rank: 9Rank: 9Rank: 9

积分
15606
发表于 2021-11-10 17:00:51 | 显示全部楼层
太好啦&萬分感謝版主的無私發佈分享%
回复 支持 反对

使用道具 举报

1

主题

1108

帖子

3344

积分

4K家园VIP

Rank: 9Rank: 9Rank: 9

积分
3344
发表于 2021-11-11 07:26:51 | 显示全部楼层
有空一起交流一下
回复 支持 反对

使用道具 举报

0

主题

4

帖子

27

积分

新手上路

Rank: 1

积分
27
发表于 2021-11-12 05:18:00 | 显示全部楼层

Where is Administration 4kjia.com??

Where is admin?
It is about advertisement on your website.
Thank.
回复 支持 反对

使用道具 举报

6

主题

1406

帖子

4062

积分

4K家园VIP

Rank: 9Rank: 9Rank: 9

积分
4062
发表于 2021-11-15 19:10:16 来自手机 | 显示全部楼层
我只是路过,不发表意见
回复 支持 反对

使用道具 举报

3

主题

1628

帖子

4452

积分

4K家园VIP

Rank: 9Rank: 9Rank: 9

积分
4452
发表于 2021-11-15 20:54:01 | 显示全部楼层
介是神马?!!
回复 支持 反对

使用道具 举报

3

主题

1577

帖子

4371

积分

4K家园VIP

Rank: 9Rank: 9Rank: 9

积分
4371
发表于 2021-11-16 08:30:57 | 显示全部楼层
大人,此事必有蹊跷!
回复 支持 反对

使用道具 举报

0

主题

4

帖子

33

积分

新手上路

Rank: 1

积分
33
发表于 2021-11-18 19:47:31 | 显示全部楼层
太棒了
回复

使用道具 举报

您需要登录后才可以回帖 登录 | 立即注册

本版积分规则

精彩图文
Archiver|手机版|TAG|Sitemap|新帖|专题|联系我们:邮箱: 4kjia.com@gmail.com   

4k家园   ©2019