[4K电影] 再见,阿贝托 (内封中字) / Ciao Alberto (2021) 4K高清版本下载

[复制链接]

1130

主题

1203

帖子

9797

积分

超级版主

Rank: 8Rank: 8

积分
9797
 楼主| 发表于 2021-11-12 09:59:41 | 显示全部楼层 |阅读模式
本帖最后由 最爱4K哟 于 2021-11-12 20:28 编辑

QQ图片20211112095741_副本.png

◎译  名 再见,阿贝托/艾伯托的新生活
◎片  名 Ciao Alberto
◎年  代 2021
◎产  地 美国
◎类  别 喜剧 / 动画 / 短片
◎语  言 英语,意大利语
◎上映日期 2021-11-12(美国)
◎IMDb评分  0/10 from 0 users
◎IMDb链接  https://www.imdb.com/title/tt15476620/
◎豆瓣评分 /10 from 0 users
◎豆瓣链接 https://movie.douban.com/subject/35642247/



◎简  介

  《夏日友晴天》番外短片,故事聚焦阿贝托在维埃拉小镇的生活。


Video
ID : 1
Format : HEVC
Format/Info : High Efficiency Video Coding
Format profile : Main 10@L5.2@Main
HDR format : Dolby Vision, Version 1.0, dvhe.05.06, BL+RPU
Codec ID : dvhe
Codec ID/Info : High Efficiency Video Coding with Dolby Vision
Duration : 6 min 37 s
Bit rate : 22.3 Mb/s
Width : 3 840 pixels
Height : 2 160 pixels
Display aspect ratio : 16:9
Frame rate mode : Constant
Frame rate : 23.976 (24000/1001/189150) FPS
Color space : YUV
Chroma subsampling : 4:2:0 (Type 0)
Bit depth : 10 bits
Bits/(Pixel*Frame) : 0.112
Stream size : 1.03 GiB (97%)
Default : Yes
Alternate group : 1
Encoded date : UTC 2021-11-11 20:43:02
Tagged date : UTC 2021-11-11 20:52:45
Color range : Full
Codec configuration box : hvcC+dvcC

Audio
ID : 2
Format : E-AC-3 JOC
Format/Info : Enhanced AC-3 with Joint Object Coding
Commercial name : Dolby Digital Plus with Dolby Atmos
Codec ID : ec-3
Duration : 6 min 40 s
Source duration : 6 min 37 s
Bit rate mode : Constant
Bit rate : 768 kb/s
Maximum bit rate : 811 kb/s
Channel(s) : 6 channels
Channel layout : L R C LFE Ls Rs
Sampling rate : 48.0 kHz
Frame rate : 31.250 FPS (1536 SPF)
Compression mode : Lossy
Stream size : 36.6 MiB (3%)
Source stream size : 36.4 MiB (3%)
Language : English
Service kind : Complete Main
Default : Yes
Alternate group : 1
Tagged date : UTC 2021-11-11 20:52:45
Complexity index : Not present / 16
Number of dynamic objects : 15
Bed channel count : 1 channel
Bed channel configuration : LFE

Text #1
ID : 4
Format : Timed Text
Codec ID : tx3g
Duration : 5 min 46 s
Bit rate mode : Variable
Bit rate : 50 b/s
Stream size : 2.13 KiB (0%)
Language : English
Forced : No
Encoded date : UTC 2021-11-11 20:43:06
Tagged date : UTC 2021-11-11 20:52:45

Text #2
ID : 5
Format : Timed Text
Codec ID : tx3g
Duration : 5 min 54 s
Bit rate mode : Variable
Bit rate : 65 b/s
Stream size : 2.83 KiB (0%)
Title : SDH
Language : English
Forced : No
Encoded date : UTC 2021-11-11 20:43:06
Tagged date : UTC 2021-11-11 20:52:45

Text #3
ID : 6
Format : Timed Text
Codec ID : tx3g
Duration : 6 min 35 s
Bit rate mode : Variable
Bit rate : 40 b/s
Stream size : 1.95 KiB (0%)
Language : Danish
Forced : No
Encoded date : UTC 2021-11-11 20:43:06
Tagged date : UTC 2021-11-11 20:52:45

Text #4
ID : 7
Format : Timed Text
Codec ID : tx3g
Duration : 6 min 35 s
Bit rate mode : Variable
Bit rate : 43 b/s
Stream size : 2.08 KiB (0%)
Language : German
Forced : No
Encoded date : UTC 2021-11-11 20:43:06
Tagged date : UTC 2021-11-11 20:52:45

Text #5
ID : 8
Format : Timed Text
Codec ID : tx3g
Duration : 6 min 35 s
Bit rate mode : Variable
Bit rate : 45 b/s
Stream size : 2.20 KiB (0%)
Title : Latin American
Language : Spanish
Forced : No
Encoded date : UTC 2021-11-11 20:43:06
Tagged date : UTC 2021-11-11 20:52:45

Text #6
ID : 9
Format : Timed Text
Codec ID : tx3g
Duration : 6 min 35 s
Bit rate mode : Variable
Bit rate : 44 b/s
Stream size : 2.14 KiB (0%)
Language : Spanish
Forced : No
Encoded date : UTC 2021-11-11 20:43:06
Tagged date : UTC 2021-11-11 20:52:45

Text #7
ID : 10
Format : Timed Text
Codec ID : tx3g
Duration : 6 min 35 s
Bit rate mode : Variable
Bit rate : 43 b/s
Stream size : 2.06 KiB (0%)
Language : Finnish
Forced : No
Encoded date : UTC 2021-11-11 20:43:06
Tagged date : UTC 2021-11-11 20:52:45

Text #8
ID : 11
Format : Timed Text
Codec ID : tx3g
Duration : 6 min 35 s
Bit rate mode : Variable
Bit rate : 44 b/s
Stream size : 2.13 KiB (0%)
Language : French
Forced : No
Encoded date : UTC 2021-11-11 20:43:06
Tagged date : UTC 2021-11-11 20:52:45

Text #9
ID : 12
Format : Timed Text
Codec ID : tx3g
Duration : 6 min 35 s
Bit rate mode : Variable
Bit rate : 45 b/s
Stream size : 2.17 KiB (0%)
Language : Indonesian
Forced : No
Encoded date : UTC 2021-11-11 20:43:06
Tagged date : UTC 2021-11-11 20:52:45

Text #10
ID : 13
Format : Timed Text
Codec ID : tx3g
Duration : 6 min 35 s
Bit rate mode : Variable
Bit rate : 43 b/s
Stream size : 2.07 KiB (0%)
Language : Italian
Forced : No
Encoded date : UTC 2021-11-11 20:43:06
Tagged date : UTC 2021-11-11 20:52:45

Text #11
ID : 14
Format : Timed Text
Codec ID : tx3g
Duration : 6 min 35 s
Bit rate mode : Variable
Bit rate : 42 b/s
Stream size : 2.05 KiB (0%)
Language : Japanese
Forced : No
Encoded date : UTC 2021-11-11 20:43:06
Tagged date : UTC 2021-11-11 20:52:45

Text #12
ID : 15
Format : Timed Text
Codec ID : tx3g
Duration : 6 min 35 s
Bit rate mode : Variable
Bit rate : 54 b/s
Stream size : 2.60 KiB (0%)
Language : Korean
Forced : No
Encoded date : UTC 2021-11-11 20:43:06
Tagged date : UTC 2021-11-11 20:52:45

Text #13
ID : 16
Format : Timed Text
Codec ID : tx3g
Duration : 6 min 35 s
Bit rate mode : Variable
Bit rate : 45 b/s
Stream size : 2.18 KiB (0%)
Language : Malay
Forced : No
Encoded date : UTC 2021-11-11 20:43:06
Tagged date : UTC 2021-11-11 20:52:45

Text #14
ID : 17
Format : Timed Text
Codec ID : tx3g
Duration : 6 min 35 s
Bit rate mode : Variable
Bit rate : 41 b/s
Stream size : 1.96 KiB (0%)
Language : Norwegian Bokmal
Forced : No
Encoded date : UTC 2021-11-11 20:43:06
Tagged date : UTC 2021-11-11 20:52:45

Text #15
ID : 18
Format : Timed Text
Codec ID : tx3g
Duration : 6 min 35 s
Bit rate mode : Variable
Bit rate : 42 b/s
Stream size : 2.04 KiB (0%)
Language : Dutch
Forced : No
Encoded date : UTC 2021-11-11 20:43:06
Tagged date : UTC 2021-11-11 20:52:45

Text #16
ID : 19
Format : Timed Text
Codec ID : tx3g
Duration : 6 min 35 s
Bit rate mode : Variable
Bit rate : 42 b/s
Stream size : 2.02 KiB (0%)
Language : Polish
Forced : No
Encoded date : UTC 2021-11-11 20:43:06
Tagged date : UTC 2021-11-11 20:52:45

Text #17
ID : 20
Format : Timed Text
Codec ID : tx3g
Duration : 6 min 35 s
Bit rate mode : Variable
Bit rate : 45 b/s
Stream size : 2.18 KiB (0%)
Title : Brazilian
Language : Portuguese
Forced : No
Encoded date : UTC 2021-11-11 20:43:06
Tagged date : UTC 2021-11-11 20:52:45

Text #18
ID : 21
Format : Timed Text
Codec ID : tx3g
Duration : 5 min 54 s
Bit rate mode : Variable
Bit rate : 78 b/s
Stream size : 3.39 KiB (0%)
Language : Portuguese
Forced : No
Encoded date : UTC 2021-11-11 20:43:06
Tagged date : UTC 2021-11-11 20:52:45

Text #19
ID : 22
Format : Timed Text
Codec ID : tx3g
Duration : 6 min 35 s
Bit rate mode : Variable
Bit rate : 44 b/s
Stream size : 2.12 KiB (0%)
Language : Portuguese
Forced : No
Encoded date : UTC 2021-11-11 20:43:06
Tagged date : UTC 2021-11-11 20:52:45

Text #20
ID : 23
Format : Timed Text
Codec ID : tx3g
Duration : 6 min 35 s
Bit rate mode : Variable
Bit rate : 42 b/s
Stream size : 2.04 KiB (0%)
Language : Swedish
Forced : No
Encoded date : UTC 2021-11-11 20:43:06
Tagged date : UTC 2021-11-11 20:52:45

Text #21
ID : 24
Format : Timed Text
Codec ID : tx3g
Duration : 6 min 35 s
Bit rate mode : Variable
Bit rate : 100 b/s
Stream size : 4.85 KiB (0%)
Language : Thai
Forced : No
Encoded date : UTC 2021-11-11 20:43:06
Tagged date : UTC 2021-11-11 20:52:45

Text #22
ID : 25
Format : Timed Text
Codec ID : tx3g
Duration : 6 min 35 s
Bit rate mode : Variable
Bit rate : 41 b/s
Stream size : 1.98 KiB (0%)
Title : 繁体
Language : 中文
Forced : No
Encoded date : UTC 2021-11-11 20:43:06
Tagged date : UTC 2021-11-11 20:52:45

Text #23
ID : 26
Format : Timed Text
Codec ID : tx3g
Duration : 6 min 35 s
Bit rate mode : Variable
Bit rate : 43 b/s
Stream size : 2.07 KiB (0%)
Title : 繁体 (香港)
Language : 中文
Forced : No
Encoded date : UTC 2021-11-11 20:43:06
Tagged date : UTC 2021-11-11 20:52:45


Menu
00:06:38.607 : Credits

迅雷下载资源速度为零,资源敏感或被和谐时,推荐使用qBittorrent等无限速下载软件,有条件的推荐115更好的下载软件!

游客,如果您要查看本帖隐藏内容请回复

游客,如果您要查看本帖隐藏内容请回复

游客,如果您要查看本帖隐藏内容请回复




.

上一篇:新小鬼当家 (内封中字) / Home Sweet Home Alone (2021) 4K高清版下载
下一篇:猎杀时刻 / Apex (2021) 4K高清版下载
回复

使用道具 举报

2

主题

1375

帖子

4098

积分

4K家园VIP

Rank: 9Rank: 9Rank: 9

积分
4098
发表于 2021-11-12 09:59:47 | 显示全部楼层
支持一下楼主发表的内容
回复 支持 反对

使用道具 举报

0

主题

6676

帖子

1万

积分

4K家园VIP

Rank: 9Rank: 9Rank: 9

积分
15538
发表于 2021-11-12 12:15:36 | 显示全部楼层
太好啦&萬分感謝版主的無私發佈分享%
回复 支持 反对

使用道具 举报

3

主题

1734

帖子

4750

积分

中级会员

Rank: 4

积分
4750
发表于 2021-11-16 12:45:01 | 显示全部楼层
支持,楼下的跟上哈~
回复 支持 反对

使用道具 举报

0

主题

1118

帖子

3368

积分

4K家园VIP

Rank: 9Rank: 9Rank: 9

积分
3368
发表于 2021-11-20 08:53:28 | 显示全部楼层
路过
回复 支持 反对

使用道具 举报

53

主题

1514

帖子

4314

积分

4K家园VIP

Rank: 9Rank: 9Rank: 9

积分
4314
发表于 2021-11-21 21:03:39 | 显示全部楼层
鼎力支持!!
回复 支持 反对

使用道具 举报

1

主题

1327

帖子

3997

积分

4K家园VIP

Rank: 9Rank: 9Rank: 9

积分
3997
发表于 2021-11-22 00:55:47 | 显示全部楼层
顶顶更健康
回复 支持 反对

使用道具 举报

您需要登录后才可以回帖 登录 | 立即注册

本版积分规则

精彩图文
Archiver|手机版|TAG|Sitemap|新帖|专题|联系我们:邮箱: 4kjia.com@gmail.com   

4k家园   ©2019