[4K电影] 猎杀时刻 / Apex (2021) 4K高清版下载

[复制链接]

1134

主题

1211

帖子

9838

积分

超级版主

Rank: 8Rank: 8

积分
9838
 楼主| 发表于 2021-11-12 16:16:02 | 显示全部楼层 |阅读模式
本帖最后由 叽里呱啦 于 2021-11-23 16:11 编辑

QQ图片20211112160237_副本.png

◎译  名 猎杀时刻
◎片  名 Apex
◎年  代 2021
◎产  地 美国
◎类  别 动作 / 惊悚
◎语  言 英语
◎上映日期 2021-11-12(美国)
◎IMDb评分  3.2/10 from 2070 users
◎IMDb链接  https://www.imdb.com/title/tt13265876/
◎豆瓣评分 3.2/10 from 67 users
◎豆瓣链接 https://movie.douban.com/subject/35270339/
◎导  演 爱德华·德雷克
◎编  剧 爱德华·德雷克 / 科里·拉奇
◎主  演 布鲁斯·威利斯
                   尼尔·麦克唐纳
                   特雷弗·格雷茨基
                   Megan Peta Hill
                   科里·拉奇

◎简  介

  五名精英猎人出钱在荒岛上追捕一名男子,却发现自己成了猎物。

General
Complete name                  : E:\Apex.2021.2160p.WEB-DL.x265.10bit.SDR.DD5.1-NOGRP.mkv
Format                         : Matroska
Format version                 : Version 4
File size                      : 8.11 GiB
Duration                       : 1 h 33 min
Overall bit rate               : 12.4 Mb/s
Encoded date                   : UTC 2021-11-12 05:51:23
Writing application            : mkvmerge v62.0.0.1 ('Apollo') 64-bit
Writing library                : libebml v1.4.2 + libmatroska v1.6.4

Video
ID                             : 1
Format                         : HEVC
Format/Info                    : High Efficiency Video Coding
Format profile                 : Main 10@L5@High
Codec ID                       : V_MPEGH/ISO/HEVC
Duration                       : 1 h 33 min
Bit rate                       : 11.8 Mb/s
Width                          : 3 832 pixels
Height                         : 1 592 pixels
Display aspect ratio           : 2.40:1
Frame rate mode                : Constant
Frame rate                     : 23.976 (24000/1001) FPS
Color space                    : YUV
Chroma subsampling             : 4:2:0
Bit depth                      : 10 bits
Bits/(Pixel*Frame)             : 0.081
Stream size                    : 7.70 GiB (95%)
Language                       : English
Default                        : Yes
Forced                         : No
Color range                    : Limited
Color primaries                : BT.709
Transfer characteristics       : BT.709
Matrix coefficients            : BT.709

Audio
ID                             : 2
Format                         : AC-3
Format/Info                    : Audio Coding 3
Commercial name                : Dolby Digital
Codec ID                       : A_AC3
Duration                       : 1 h 33 min
Bit rate mode                  : Constant
Bit rate                       : 384 kb/s
Channel(s)                     : 6 channels
Channel layout                 : L R C LFE Ls Rs
Sampling rate                  : 48.0 kHz
Frame rate                     : 31.250 FPS (1536 SPF)
Compression mode               : Lossy
Stream size                    : 257 MiB (3%)
Title                          : English
Language                       : English
Service kind                   : Complete Main
Default                        : Yes
Forced                         : No

Text
ID                             : 3
Format                         : UTF-8
Codec ID                       : S_TEXT/UTF8
Codec ID/Info                  : UTF-8 Plain Text
Language                       : English
Default                        : Yes
Forced                         : No

迅雷下载资源速度为零,资源敏感或被和谐时,推荐使用qBittorrent等无限速下载软件,有条件的推荐115更好的下载软件!

下载地址

游客,如果您要查看本帖隐藏内容请回复





.


上一篇:再见,阿贝托 (内封中字) / Ciao Alberto (2021) 4K高清版本下载
下一篇:复仇者联盟3:无限战争 (内封中字) (2018) 4K高清IMAX版本下载
回复

使用道具 举报

1134

主题

1211

帖子

9838

积分

超级版主

Rank: 8Rank: 8

积分
9838
 楼主| 发表于 2021-11-12 16:18:20 | 显示全部楼层
Apex.2021.2160p.WEB-DL.x265.10bit.SDR.DD5.1-NOGRP.mkv_20211112_161053.496.jpg Apex.2021.2160p.WEB-DL.x265.10bit.SDR.DD5.1-NOGRP.mkv_20211112_161109.920.jpg Apex.2021.2160p.WEB-DL.x265.10bit.SDR.DD5.1-NOGRP.mkv_20211112_161337.344.jpg Apex.2021.2160p.WEB-DL.x265.10bit.SDR.DD5.1-NOGRP.mkv_20211112_161358.913.jpg Apex.2021.2160p.WEB-DL.x265.10bit.SDR.DD5.1-NOGRP.mkv_20211112_161419.624.jpg Apex.2021.2160p.WEB-DL.x265.10bit.SDR.DD5.1-NOGRP.mkv_20211112_161444.112.jpg
回复 支持 反对

使用道具 举报

1

主题

1225

帖子

3691

积分

4K家园VIP

Rank: 9Rank: 9Rank: 9

积分
3691
发表于 2021-11-12 16:16:09 | 显示全部楼层
高手云集 果断围观
回复 支持 反对

使用道具 举报

0

主题

6718

帖子

1万

积分

4K家园VIP

Rank: 9Rank: 9Rank: 9

积分
15606
发表于 2021-11-12 16:18:40 | 显示全部楼层
太好啦&萬分感謝版主的無私發佈分享%
回复 支持 反对

使用道具 举报

0

主题

1333

帖子

4013

积分

4K家园VIP

Rank: 9Rank: 9Rank: 9

积分
4013
发表于 2021-11-13 00:18:56 | 显示全部楼层
啊啊啊啊啊啊啊啊啊啊啊
回复 支持 反对

使用道具 举报

2

主题

1310

帖子

3764

积分

4K家园VIP

Rank: 9Rank: 9Rank: 9

积分
3764
发表于 2021-11-13 22:34:15 | 显示全部楼层
正好需要啊
回复 支持 反对

使用道具 举报

1

主题

1594

帖子

4404

积分

4K家园VIP

Rank: 9Rank: 9Rank: 9

积分
4404
发表于 2021-11-14 18:49:03 | 显示全部楼层
顶起出售广告位
回复 支持 反对

使用道具 举报

0

主题

1682

帖子

4648

积分

4K家园VIP

Rank: 9Rank: 9Rank: 9

积分
4648
发表于 2021-11-14 21:17:59 | 显示全部楼层
4K家园不错,希望这种资源越多越好
回复 支持 反对

使用道具 举报

0

主题

8

帖子

40

积分

新手上路

Rank: 1

积分
40
发表于 2021-11-17 02:02:24 | 显示全部楼层

Where is Administration 4kjia.com ??

Where is moderator??
It is important.
Thank.
回复 支持 反对

使用道具 举报

0

主题

115

帖子

283

积分

新手上路

Rank: 1

积分
283
QQ
发表于 2021-11-17 15:07:16 | 显示全部楼层
回复回复
感谢楼主分享
回复 支持 反对

使用道具 举报

您需要登录后才可以回帖 登录 | 立即注册

本版积分规则

精彩图文
Archiver|手机版|TAG|Sitemap|新帖|专题|联系我们:邮箱: 4kjia.com@gmail.com   

4k家园   ©2019