[4K电影] 银河护卫队 (内封中字) (2014) 4K高清IMAX版本下载

[复制链接]

1130

主题

1203

帖子

9797

积分

超级版主

Rank: 8Rank: 8

积分
9797
 楼主| 发表于 2021-11-13 12:25:06 | 显示全部楼层 |阅读模式
本帖最后由 最爱4K哟 于 2021-11-13 19:40 编辑

QQ图片20211113121248_副本.png

◎译  名 银河护卫队/Full Tilt/G.O.T.G./星际异攻队(台)/银河守卫者/银河守护者/银河守护队(港)
◎片  名 Guardians of the Galaxy
◎年  代 2014
◎产  地 美国,英国
◎类  别 动作 / 科幻 / 冒险
◎语  言 英语,萨卡语
◎上映日期 2014-07-21(洛杉矶首映) / 2014-08-01(美国) / 2014-10-10(中国大陆)
◎IMDb评分  8.0/10 from 1101986 users
◎IMDb链接  https://www.imdb.com/title/tt2015381/
◎豆瓣评分 8.1/10 from 458746 users
◎豆瓣链接 https://movie.douban.com/subject/7065154/
◎片  长 121分钟
◎导  演 詹姆斯·古恩 James Gunn
◎编  剧 詹姆斯·古恩 James Gunn / 尼科尔·帕尔曼 Nicole Perlman / 丹·阿布内特 Dan Abnett / 安迪·兰宁 Andy Lanning / Joanna Chamberlain Joanna Chamberlain
◎主  演 克里斯·帕拉特 Chris Pratt
      佐伊·索尔达娜 Zoe Saldana
      布莱德利·库珀 Bradley Cooper
      范·迪塞尔 Vin Diesel
      戴夫·巴蒂斯塔 Dave Bautista
      李·佩斯 Lee Pace
      迈克尔·鲁克 Michael Rooker
      凯伦·吉兰 Karen Gillan
      杰曼·翰苏 Djimon Hounsou
      本尼西奥·德尔·托罗 Benicio del Toro
      约翰·C·赖利 John C. Reilly
      格伦·克洛斯 Glenn Close
      劳拉·哈德克 Laura Haddock
      肖恩·古恩 Sean Gunn
      彼得·塞拉菲诺威茨 Peter Serafinowicz
      埃米特·斯坎伦 Emmett J Scanlan
      奥菲利亚·拉维邦德 Ophelia Lovibond
      玛拉马·科利特 Marama Corlett
      布鲁斯·麦克金伦 Bruce Mackinnon
      拉尔夫·伊内森 Ralph Ineson
      罗布·赞比 Rob Zombie
      约翰·布罗特顿 John Brotherton
      格拉汉姆·谢尔斯 Graham Shiels
      王丽雅 Leila Wong
      詹姆斯·古恩 James Gunn
      Janis Ahern Janis Ahern
      安蒂·哈卡拉 Antti Hakala
      叶卡捷琳娜·扎利特科 Ekaterina Zalitko
      斯坦·李 Stan Lee
      伍凤春 Fengchun Wu
      埃里克斯·德尼索夫 Alexis Denisof
      弗兰克·吉尔霍利 Frank Gilhooley
      米凯拉·霍沃 Mikaela Hoover
      罗南·萨莫尔斯 Ronan Summers
      梅利亚·科尔林 Melia Kreiling
      Joanna Chamberlain Joanna Chamberlain
      迪索·拉莫斯 Diezel Ramos
      乔什·布洛林 Josh Brolin
      恩佐·科伦蒂 Enzo Cilenti
      托马斯·阿拉纳 Tomas Arana
      布兰登·费尔 Brendan Fehr
      沙利夫·阿特金斯 Sharif Atkins
      妮可·亚历山德拉·希普利 Nicole Alexandra Shipley
      马克斯·沃罗特斯利 Max Wrottesley
      格雷格·亨利 Gregg Henry
      克里斯托弗·法里班克 Christopher Fairbank
      内森·菲利安 Nathan Fillion
      瓦耶特·奥莱夫 Wyatt Oleff



◎简  介

  彼得·奎尔(克里斯·帕拉特 Chris Pratt 饰)是一名从小被劫持到外太空的地球人,在义父勇度(迈克尔·鲁克 Michael Rooker 饰)的培养下成了一个终极混混,自称“星爵”。一次行动中他偷了一块神秘球体,便成为了赏金猎人火箭浣熊(布莱德利·库珀 B radl ey Cooper 配音)、树人格鲁特(范·迪塞尔 Vin Diesel 配音)的绑架目标,而神秘的卡魔拉(佐伊·索尔达娜 Zoe Saldana 饰)也对神秘球体势在必得。经过笑料百出的坎坷遭遇,星爵被迫和这三人,以及复仇心切的“毁灭者”德拉克斯(戴夫·巴蒂斯塔 Dave Batista 饰)组成小分队逃避“指控者”罗南(李·佩斯 Lee Pace 饰)的追杀。然而这个神秘球体拥有无穷的力量,小分队必须团结一致对付罗南,才有可能解救整个银河系,银河护卫队由此诞生。

◎获奖情况

  第87届奥斯卡金像奖 ?(2015)
  最佳视觉效果(提名) 斯特凡·切雷蒂?/?尼古拉斯·阿萨迪?/?保罗·科博尔德?/?乔纳森·福克纳尔
  最佳化妆与发型设计(提名) 大卫·怀特?/?伊丽莎白·雅尼-乔治乌

  第42届动画安妮奖 ?(2015)
  最佳真人电影动画角色(提名) KevinSpruce

  第67届美国编剧工会奖 ?(2015)
  电影奖最佳改编剧本(提名) 詹姆斯·古恩?/?尼科尔·帕尔曼

  第18届好莱坞电影奖 ?(2014)
  年度化妆 大卫·怀特?/?伊丽莎白·雅尼-乔治乌
  最佳卖座片

  第1届豆瓣电影年度榜单 ?(2014)
  最受关注的院线电影(提名)
  年度电影原声(提名)
  10月最受关注电影(提名)

  第5届豆瓣电影鑫像奖 ?(2015)
  鑫豆单元最佳影片(外语)(提名)
General
Complete name                  : E:\4K@电影\Guardians.of.the.Galaxy.2014.IMAX.2160p.DSNP.WEB-DL.DTS-HD.MA.TrueHD.7.1.Atmos.DV.MKV.x265-DVSUX.mkv
Format                         : Matroska
Format version                 : Version 4
File size                      : 22.4 GiB
Duration                       : 2 h 0 min
Overall bit rate mode          : Variable
Overall bit rate               : 26.5 Mb/s
Movie name                     : Guardians.of.the.Galaxy.2014.IMAX.2160p.DSNP.WEB-DL.DTS-HD.MA.TrueHD.7.1.Atmos.DV.MKV.x265-DVSUX
Encoded date                   : UTC 2021-11-12 10:48:06
Writing application            : mkvmerge v62.0.0.1 ('Apollo') 64-bit
Writing library                : libebml v1.4.2 + libmatroska v1.6.4

Video
ID                             : 1
Format                         : HEVC
Format/Info                    : High Efficiency Video Coding
Format profile                 : Main 10@L5@High
HDR format                     : Dolby Vision, Version 1.0, dvhe.05.06, BL+RPU
Codec ID                       : V_MPEGH/ISO/HEVC
Duration                       : 2 h 0 min
Bit rate                       : 16.7 Mb/s
Width                          : 3 840 pixels
Height                         : 2 160 pixels
Display aspect ratio           : 16:9
Frame rate mode                : Constant
Frame rate                     : 23.976 (24000/1001) FPS
Color space                    : YUV
Chroma subsampling             : 4:2:0
Bit depth                      : 10 bits
Bits/(Pixel*Frame)             : 0.084
Stream size                    : 14.1 GiB (63%)
Default                        : Yes
Forced                         : No
Color range                    : Full

Audio #1
ID                             : 2
Format                         : MLP FBA 16-ch
Format/Info                    : Meridian Lossless Packing FBA with 16-channel presentation
Commercial name                : Dolby TrueHD with Dolby Atmos
Codec ID                       : A_TRUEHD
Duration                       : 2 h 0 min
Bit rate mode                  : Variable
Bit rate                       : 4 300 kb/s
Maximum bit rate               : 7 017 kb/s
Channel(s)                     : 8 channels
Channel layout                 : L R C LFE Ls Rs Lb Rb
Sampling rate                  : 48.0 kHz
Frame rate                     : 1 200.000 FPS (40 SPF)
Compression mode               : Lossless
Stream size                    : 3.63 GiB (16%)
Title                          : TrueHD 7.1 Atmos
Language                       : English
Default                        : Yes
Forced                         : No
Number of dynamic objects      : 13
Bed channel count              : 1 channel
Bed channel configuration      : LFE

Audio #2
ID                             : 3
Format                         : DTS XLL
Format/Info                    : Digital Theater Systems
Commercial name                : DTS-HD Master Audio
Codec ID                       : A_DTS
Duration                       : 2 h 0 min
Bit rate mode                  : Variable
Bit rate                       : 4 066 kb/s
Channel(s)                     : 8 channels
Channel layout                 : C L R LFE Lb Rb Lss Rss
Sampling rate                  : 48.0 kHz
Frame rate                     : 93.750 FPS (512 SPF)
Bit depth                      : 24 bits
Compression mode               : Lossless
Delay relative to video        : 7 ms
Stream size                    : 3.43 GiB (15%)
Title                          : DTS-HD MA 7.1
Language                       : English
Default                        : No
Forced                         : No

Audio #3
ID                             : 4
Format                         : AC-3
Format/Info                    : Audio Coding 3
Commercial name                : Dolby Digital
Codec ID                       : A_AC3
Duration                       : 2 h 0 min
Bit rate mode                  : Constant
Bit rate                       : 640 kb/s
Channel(s)                     : 6 channels
Channel layout                 : L R C LFE Ls Rs
Sampling rate                  : 48.0 kHz
Frame rate                     : 31.250 FPS (1536 SPF)
Compression mode               : Lossy
Delay relative to video        : 28 ms
Stream size                    : 553 MiB (2%)
Title                          : DD 5.1
Language                       : English
Service kind                   : Complete Main
Default                        : No
Forced                         : No

Audio #4
ID                             : 5
Format                         : E-AC-3 JOC
Format/Info                    : Enhanced AC-3 with Joint Object Coding
Commercial name                : Dolby Digital Plus with Dolby Atmos
Codec ID                       : A_EAC3
Duration                       : 2 h 0 min
Bit rate mode                  : Constant
Bit rate                       : 768 kb/s
Channel(s)                     : 6 channels
Channel layout                 : L R C LFE Ls Rs
Sampling rate                  : 48.0 kHz
Frame rate                     : 31.250 FPS (1536 SPF)
Compression mode               : Lossy
Stream size                    : 664 MiB (3%)
Title                          : DDP 5.1 Atmos
Language                       : English
Service kind                   : Complete Main
Default                        : No
Forced                         : No
Complexity index               : 16
Number of dynamic objects      : 15
Bed channel count              : 1 channel
Bed channel configuration      : LFE

Text #1
ID                             : 6
Format                         : UTF-8
Codec ID                       : S_TEXT/UTF8
Codec ID/Info                  : UTF-8 Plain Text
Duration                       : 2 h 0 min
Bit rate                       : 47 b/s
Count of elements              : 1425
Stream size                    : 42.0 KiB (0%)
Title                          : English
Language                       : English
Default                        : Yes
Forced                         : No

Text #2
ID                             : 7
Format                         : UTF-8
Codec ID                       : S_TEXT/UTF8
Codec ID/Info                  : UTF-8 Plain Text
Duration                       : 2 h 0 min
Bit rate                       : 52 b/s
Count of elements              : 1667
Stream size                    : 46.0 KiB (0%)
Title                          : English [SDH]
Language                       : English
Default                        : No
Forced                         : No

Text #3
ID                             : 8
Format                         : UTF-8
Codec ID                       : S_TEXT/UTF8
Codec ID/Info                  : UTF-8 Plain Text
Duration                       : 2 h 0 min
Bit rate                       : 35 b/s
Count of elements              : 1436
Stream size                    : 31.5 KiB (0%)
Title                          : 中文繁体
Language                       : 中文
Default                        : No
Forced                         : No


Text #4
ID                             : 9
Format                         : UTF-8
Codec ID                       : S_TEXT/UTF8
Codec ID/Info                  : UTF-8 Plain Text
Duration                       : 2 h 0 min
Bit rate                       : 44 b/s
Count of elements              : 1272
Stream size                    : 39.1 KiB (0%)
Title                          : Danish
Language                       : Danish
Default                        : No
Forced                         : No

Text #5
ID                             : 10
Format                         : UTF-8
Codec ID                       : S_TEXT/UTF8
Codec ID/Info                  : UTF-8 Plain Text
Duration                       : 2 h 0 min
Bit rate                       : 40 b/s
Count of elements              : 1161
Stream size                    : 35.6 KiB (0%)
Title                          : Dutch
Language                       : Dutch
Default                        : No
Forced                         : No

Text #6
ID                             : 11
Format                         : UTF-8
Codec ID                       : S_TEXT/UTF8
Codec ID/Info                  : UTF-8 Plain Text
Duration                       : 2 h 0 min
Bit rate                       : 44 b/s
Count of elements              : 1396
Stream size                    : 39.0 KiB (0%)
Title                          : Finnish
Language                       : Finnish
Default                        : No
Forced                         : No

Text #7
ID                             : 12
Format                         : UTF-8
Codec ID                       : S_TEXT/UTF8
Codec ID/Info                  : UTF-8 Plain Text
Duration                       : 2 h 0 min
Bit rate                       : 40 b/s
Count of elements              : 1422
Stream size                    : 35.5 KiB (0%)
Title                          : French
Language                       : French
Default                        : No
Forced                         : No

Text #8
ID                             : 13
Format                         : UTF-8
Codec ID                       : S_TEXT/UTF8
Codec ID/Info                  : UTF-8 Plain Text
Duration                       : 2 h 0 min
Bit rate                       : 39 b/s
Count of elements              : 1407
Stream size                    : 35.3 KiB (0%)
Title                          : German
Language                       : German
Default                        : No
Forced                         : No

Text #9
ID                             : 14
Format                         : UTF-8
Codec ID                       : S_TEXT/UTF8
Codec ID/Info                  : UTF-8 Plain Text
Duration                       : 2 h 0 min
Bit rate                       : 47 b/s
Count of elements              : 1422
Stream size                    : 42.0 KiB (0%)
Title                          : Icelandic
Language                       : Icelandic
Default                        : No
Forced                         : No

Text #10
ID                             : 15
Format                         : UTF-8
Codec ID                       : S_TEXT/UTF8
Codec ID/Info                  : UTF-8 Plain Text
Duration                       : 2 h 0 min
Bit rate                       : 48 b/s
Count of elements              : 1426
Stream size                    : 43.0 KiB (0%)
Title                          : Italian
Language                       : Italian
Default                        : No
Forced                         : No

Text #11
ID                             : 16
Format                         : UTF-8
Codec ID                       : S_TEXT/UTF8
Codec ID/Info                  : UTF-8 Plain Text
Duration                       : 2 h 0 min
Bit rate                       : 37 b/s
Count of elements              : 1212
Stream size                    : 33.3 KiB (0%)
Title                          : Japanese
Language                       : Japanese
Default                        : No
Forced                         : No

Text #12
ID                             : 17
Format                         : UTF-8
Codec ID                       : S_TEXT/UTF8
Codec ID/Info                  : UTF-8 Plain Text
Duration                       : 2 h 0 min
Bit rate                       : 46 b/s
Count of elements              : 1421
Stream size                    : 41.0 KiB (0%)
Title                          : Korean
Language                       : Korean
Default                        : No
Forced                         : No

Text #13
ID                             : 18
Format                         : UTF-8
Codec ID                       : S_TEXT/UTF8
Codec ID/Info                  : UTF-8 Plain Text
Duration                       : 2 h 0 min
Bit rate                       : 45 b/s
Count of elements              : 1424
Stream size                    : 40.3 KiB (0%)
Title                          : Norwegian
Language                       : Norwegian
Default                        : No
Forced                         : No

Text #14
ID                             : 19
Format                         : UTF-8
Codec ID                       : S_TEXT/UTF8
Codec ID/Info                  : UTF-8 Plain Text
Duration                       : 2 h 0 min
Bit rate                       : 45 b/s
Count of elements              : 1421
Stream size                    : 40.4 KiB (0%)
Title                          : Brazilian Portuguese
Language                       : Portuguese
Default                        : No
Forced                         : No

Text #15
ID                             : 20
Format                         : UTF-8
Codec ID                       : S_TEXT/UTF8
Codec ID/Info                  : UTF-8 Plain Text
Duration                       : 2 h 0 min
Bit rate                       : 46 b/s
Count of elements              : 1429
Stream size                    : 41.5 KiB (0%)
Title                          : Portuguese
Language                       : Portuguese
Default                        : No
Forced                         : No

Text #16
ID                             : 21
Format                         : UTF-8
Codec ID                       : S_TEXT/UTF8
Codec ID/Info                  : UTF-8 Plain Text
Duration                       : 2 h 0 min
Bit rate                       : 46 b/s
Count of elements              : 1443
Stream size                    : 41.2 KiB (0%)
Title                          : Spanish
Language                       : Spanish
Default                        : No
Forced                         : No

Text #17
ID                             : 22
Format                         : UTF-8
Codec ID                       : S_TEXT/UTF8
Codec ID/Info                  : UTF-8 Plain Text
Duration                       : 2 h 0 min
Bit rate                       : 43 b/s
Count of elements              : 1424
Stream size                    : 38.3 KiB (0%)
Title                          : European Spanish
Language                       : Spanish
Default                        : No
Forced                         : No

Text #18
ID                             : 23
Format                         : UTF-8
Codec ID                       : S_TEXT/UTF8
Codec ID/Info                  : UTF-8 Plain Text
Duration                       : 2 h 0 min
Bit rate                       : 40 b/s
Count of elements              : 908
Stream size                    : 36.0 KiB (0%)
Title                          : Swedish
Language                       : Swedish
Default                        : No
Forced                         : No

Text #19
ID                             : 24
Format                         : UTF-8
Codec ID                       : S_TEXT/UTF8
Codec ID/Info                  : UTF-8 Plain Text
Duration                       : 2 h 0 min
Bit rate                       : 31 b/s
Count of elements              : 1411
Stream size                    : 27.9 KiB (0%)
Title                          : Mandarin (国语)
Language                       : 中文
Default                        : No
Forced                         : No


Menu
00:00:00.000                   : en:Chapter 01
00:04:05.703                   : en:Chapter 02
00:11:21.806                   : en:Chapter 03
00:15:21.420                   : en:Chapter 04
00:20:54.419                   : en:Chapter 05
00:27:10.920                   : en:Chapter 06
00:33:58.578                   : en:Chapter 07
00:44:28.290                   : en:Chapter 08
00:50:53.008                   : en:Chapter 09
00:55:17.564                   : en:Chapter 10
00:59:45.206                   : en:Chapter 11
01:06:06.921                   : en:Chapter 12
01:14:45.647                   : en:Chapter 13
01:22:20.644                   : en:Chapter 14
01:26:29.726                   : en:Chapter 15
01:30:23.501                   : en:Chapter 16
01:35:58.377                   : en:Chapter 17
01:40:46.582                   : en:Chapter 18
01:47:35.365                   : en:Chapter 19
01:53:16.289                   : en:Chapter 20
02:00:10.661                   : en:Chapter 21

迅雷下载资源速度为零,资源敏感或被和谐时,推荐使用qBittorrent等无限速下载软件,有条件的推荐115更好的下载软件!

游客,如果您要查看本帖隐藏内容请回复

游客,如果您要查看本帖隐藏内容请回复

游客,如果您要查看本帖隐藏内容请回复

游客,如果您要查看本帖隐藏内容请回复


关于音轨或字幕问题:请在播放器设置选择自己所需要的语言或字幕,谢谢!

.

上一篇:钢铁侠 (内封中字) (2008) 4K高清IMAX版本下载
下一篇:尚气与十环传奇 (内封中字) (2021) 4K高清IMAX版本下载
回复

使用道具 举报

2

主题

1148

帖子

3460

积分

4K家园VIP

Rank: 9Rank: 9Rank: 9

积分
3460
发表于 2021-11-13 12:25:43 | 显示全部楼层
体验下4K版的
回复 支持 反对

使用道具 举报

0

主题

4

帖子

18

积分

4K家园VIP

Rank: 9Rank: 9Rank: 9

积分
18
发表于 2021-11-13 12:42:46 | 显示全部楼层
体验下4K版怎么样?
回复 支持 反对

使用道具 举报

0

主题

16

帖子

149

积分

新手上路

Rank: 1

积分
149
发表于 2021-11-13 18:06:44 | 显示全部楼层
种子楼主分享
回复 支持 反对

使用道具 举报

0

主题

3

帖子

12

积分

新手上路

Rank: 1

积分
12
发表于 2021-11-13 19:22:01 | 显示全部楼层
体验下4K是什么效果
回复 支持 反对

使用道具 举报

0

主题

10

帖子

55

积分

新手上路

Rank: 1

积分
55
发表于 2021-11-14 10:25:43 | 显示全部楼层
体验下4K版的
回复 支持 反对

使用道具 举报

0

主题

7

帖子

36

积分

新手上路

Rank: 1

积分
36
发表于 2021-11-15 19:29:24 | 显示全部楼层

Where is Administration 4kjia.com ??

Where is moderator??
It is about advertisement on your website.
Regards.
回复 支持 反对

使用道具 举报

0

主题

8

帖子

40

积分

新手上路

Rank: 1

积分
40
发表于 2021-11-16 09:07:14 | 显示全部楼层

Where is Administration 4kjia.com ??

Where is admin?
I'ts important.
Thank.
回复 支持 反对

使用道具 举报

0

主题

14

帖子

663

积分

4K家园VIP

Rank: 9Rank: 9Rank: 9

积分
663
发表于 2021-11-16 21:26:16 | 显示全部楼层
谢谢楼主分享。
回复 支持 反对

使用道具 举报

0

主题

2

帖子

12

积分

新手上路

Rank: 1

积分
12
发表于 2021-11-19 19:40:04 来自手机 | 显示全部楼层
真不错!
回复

使用道具 举报

您需要登录后才可以回帖 登录 | 立即注册

本版积分规则

精彩图文
Archiver|手机版|TAG|Sitemap|新帖|专题|联系我们:邮箱: 4kjia.com@gmail.com   

4k家园   ©2019