成瘾剂量 / Dopesick (2021) / 第一季全8集/4K高清下载

[复制链接]

52

主题

59

帖子

602

积分

版主

Rank: 7Rank: 7Rank: 7

积分
602
 楼主| 发表于 2021-11-18 20:35:28 | 显示全部楼层 |阅读模式
p2682534549_副本.jpg

◎译  名 成瘾剂量
◎片  名 Dopesick
◎年  代 2021
◎产  地 美国
◎类  别 剧情
◎语  言 英语
◎上映日期 2021-10-13(美国)
◎IMDb评分  8.8/10 from 9229 users
◎IMDb链接  https://www.imdb.com/title/tt9174558/
◎豆瓣评分 9.2/10 from 1047 users
◎豆瓣链接 https://douban.com/subject/35101436/
◎集  数 8
◎导  演 巴瑞·莱文森 Barry Levinson
◎编  剧 丹尼·斯特朗 Danny Strong /  Benjamin Rubin
◎主  演 迈克尔·基顿 Michael Keaton
       彼得·萨斯加德 Peter Sarsgaard
       威尔·保尔特 Will Poulter
       约翰·胡热那克 John Hoogenakker
       凯特琳·德弗 Kaitlyn Dever
       罗莎里奥·道森 Rosario Dawson
       迈克尔·斯图巴 Michael Stuhlbarg
       威尔·切斯 Will Chase
       杰克·麦克道曼 Jake McDorman
       菲莉帕·苏 Phillipa Soo
       伊恩·安特曼 Ian Unterman
       R.基斯·哈里斯 R. Keith Harris
       杰米·雷·纽曼 Jaime Ray Newman
       瑞贝卡·薇索基 Rebecca Wisocky
       皮特·布里斯 Pete Burris
       肖恩·卡拉汉 Shane Callahan
       米根·费伊 Meagen Fay
       斯宾塞·加雷特 Spencer Garrett
       尼古拉斯·罗根 Nicholas Logan
       凯特琳·梅纳 Caitlin Mehner
       安东尼·雷诺兹 Anthony Reynolds
       凯西·福特·亚历山大 Casey Ford Alexander
       肯尼·阿方索 Kenny Alfonso
       赛琳娜·安杜兹 Selena Anduze
       克利欧佩特拉·科尔曼 Cleopatra Coleman
       Scott Charles Scott Charles


◎简  介


  迈克尔·基顿将主演Hulu 8集限定剧《成瘾剂量》(Dopesick,暂译)。丹尼·斯特朗([规则改变])担任剧集运作人与编剧,巴瑞·莱文森([死亡医生])执导。该剧根据Beth Macy撰写的同名畅销书改编,基顿扮演老派医生塞缪尔·芬尼克斯,他以仁慈和同情心对待自己的工作,但他发现自己陷入了大制药公司致命的秘密之中。


General
Complete name                  : H:\Dopesick.S01E01.First.Bottle.2160p.HULU.WEB-DL.DDP5.1.H.265-FLUX.mkv
Format                         : Matroska
Format version                 : Version 4
File size                      : 6.81 GiB
Duration                       : 1 h 2 min
Overall bit rate               : 15.7 Mb/s
Encoded date                   : UTC 2021-10-13 04:06:00
Writing application            : mkvmerge v61.0.0 ('So') 64-bit
Writing library                : libebml v1.4.2 + libmatroska v1.6.4
IsTruncated                    : Yes

Video
ID                             : 1
Format                         : HEVC
Format/Info                    : High Efficiency Video Coding
Format profile                 : Main 10@L5.1@Main
Codec ID                       : V_MPEGH/ISO/HEVC
Duration                       : 1 h 2 min
Bit rate                       : 15.1 Mb/s
Width                          : 3 840 pixels
Height                         : 2 160 pixels
Display aspect ratio           : 16:9
Frame rate mode                : Constant
Frame rate                     : 24.000 FPS
Color space                    : YUV
Chroma subsampling             : 4:2:0
Bit depth                      : 10 bits
Bits/(Pixel*Frame)             : 0.076
Stream size                    : 6.57 GiB (96%)
Default                        : Yes
Forced                         : No

Audio
ID                             : 2
Format                         : E-AC-3
Format/Info                    : Enhanced AC-3
Commercial name                : Dolby Digital Plus
Codec ID                       : A_EAC3
Duration                       : 1 h 2 min
Bit rate mode                  : Constant
Bit rate                       : 256 kb/s
Channel(s)                     : 6 channels
Channel layout                 : L R C LFE Ls Rs
Sampling rate                  : 48.0 kHz
Frame rate                     : 31.250 FPS (1536 SPF)
Compression mode               : Lossy
Stream size                    : 114 MiB (2%)
Language                       : English
Service kind                   : Complete Main
Default                        : Yes
Forced                         : No

Text #1
ID                             : 3
Format                         : UTF-8
Codec ID                       : S_TEXT/UTF8
Codec ID/Info                  : UTF-8 Plain Text
Language                       : English
Default                        : No
Forced                         : No

Text #2
ID                             : 4
Format                         : UTF-8
Codec ID                       : S_TEXT/UTF8
Codec ID/Info                  : UTF-8 Plain Text
Title                          : SDH
Language                       : English
Default                        : No
Forced                         : No

Text #3
ID                             : 5
Format                         : UTF-8
Codec ID                       : S_TEXT/UTF8
Codec ID/Info                  : UTF-8 Plain Text
Title                          : SDH
Language                       : Spanish
Default                        : No
Forced                         : No

Menu
00:19:45.000                   : Chapter 1
00:31:25.000                   : Chapter 2
00:40:55.000                   : Chapter 3
00:45:50.000                   : Chapter 4
下载地址:(提示:请用专业qB下载软件下载,以获取更快下载速度)

游客,如果您要查看本帖隐藏内容请回复

游客,如果您要查看本帖隐藏内容请回复





..
















上一篇:交错人生(内嵌简繁中字) (2021) / 第一季全10集/4K高清下载
下一篇:凯瑟琳大帝 / The Great (2021) / 第二季全10集 / 4K高清下载
回复

使用道具 举报

40

主题

1495

帖子

4275

积分

4K家园VIP

Rank: 9Rank: 9Rank: 9

积分
4275
发表于 2021-11-18 20:36:41 | 显示全部楼层
发发呆,回回帖,工作结束~
回复 支持 反对

使用道具 举报

0

主题

6576

帖子

1万

积分

4K家园VIP

Rank: 9Rank: 9Rank: 9

积分
15360
发表于 2021-11-18 22:22:10 | 显示全部楼层
太好啦&萬分感謝版主的無私發佈分享%
回复 支持 反对

使用道具 举报

195

主题

1543

帖子

4231

积分

4K家园VIP

Rank: 9Rank: 9Rank: 9

积分
4231
发表于 2021-11-19 06:51:42 | 显示全部楼层
前排顶,很好!
回复 支持 反对

使用道具 举报

0

主题

1348

帖子

3878

积分

中级会员

Rank: 4

积分
3878
发表于 2021-11-19 21:21:52 | 显示全部楼层
为保住菊花,这个一定得回复!
回复 支持 反对

使用道具 举报

3

主题

1344

帖子

3862

积分

4K家园VIP

Rank: 9Rank: 9Rank: 9

积分
3862
发表于 2021-11-19 21:50:42 | 显示全部楼层
一直在看
回复 支持 反对

使用道具 举报

1

主题

1350

帖子

3858

积分

4K家园VIP

Rank: 9Rank: 9Rank: 9

积分
3858
发表于 2021-11-19 21:54:29 | 显示全部楼层
前排支持下了哦~
回复 支持 反对

使用道具 举报

0

主题

2

帖子

26

积分

新手上路

Rank: 1

积分
26
发表于 前天 14:26 | 显示全部楼层
感谢分享 非常感谢
回复 支持 反对

使用道具 举报

0

主题

1

帖子

6

积分

新手上路

Rank: 1

积分
6
发表于 昨天 07:58 | 显示全部楼层
感谢分享
回复

使用道具 举报

您需要登录后才可以回帖 登录 | 立即注册

本版积分规则

精彩图文
Archiver|手机版|TAG|Sitemap|新帖|专题|联系我们:邮箱: 4kjia.com@gmail.com   

4k家园   ©2019