[4Kjia独享4K资源] 永无止境 / Limitless (2011) 4K高清版本下载

[复制链接]

1094

主题

1167

帖子

9581

积分

超级版主

Rank: 8Rank: 8

积分
9581
 楼主| 发表于 2021-11-19 13:07:58 | 显示全部楼层 |阅读模式
本帖最后由 最爱4K哟 于 2021-11-19 16:25 编辑

101901gtvb6q4hy6eatte7.jpg

◎译  名 永无止境 / The Dark Fields / 药不能停(豆友译名) / 药命效应(台) / 逆天潜能(港) / 黑暗领域
◎片  名 Limitless
◎年  代 2011
◎产  地 美国
◎类  别 科幻 / 悬疑 / 惊悚
◎语  言 英语
◎上映日期 2011-03-18(美国) / 2011-10-13(中国大陆)
◎IMDb评分 7.4/10 from 516386 users
◎IMDb链接 https://www.imdb.com/title/tt1219289
◎豆瓣评分 7.4/10 from 123210 users
◎豆瓣链接 https://movie.douban.com/subject/3041269/
◎片  长 105分钟
◎导  演 尼尔·博格 Neil Burger
◎编  剧 Leslie Dixon / 艾伦·格林 Alan Glynn
◎主  演 布莱德利·库珀 Bradley Cooper
      艾比·考尼什 Abbie Cornish
      罗伯特·德尼罗 Robert De Niro
      安德鲁·霍华德 Andrew Howard
      安娜·弗莱尔 Anna Friel
      梅天悦 T.V. Carpio
      约翰尼·威特沃斯 Johnny Whitworth



◎简  介

  影片改编自阿兰·格里恩出版于2001年的小说《黑暗领域》,主演布莱德利·库珀曾获得2011年全球最性感男人称号。
  潦倒颓废的艾迪·莫莱(布莱德利·库珀 Bradley Cooper 饰)是一个丢掉了工作,缺乏灵感的作家。许久不联系的前小舅子给他一种正处在试验阶段的药物--NZT。服用一次之后艾迪发现自己精力充沛,思维清晰,行动敏捷,甚至能在瞬间把一些平时不易留意的细节和信息重新组合和整理并得出推论。等他再一次去找小舅子却发现他已被人谋杀,屋里一片狼藉,紧跟着是一群杀手的追杀。死里逃生的艾迪终于发现了这款名为NZT的新药物能使人发挥大脑100%的能力。借助NZT,艾迪重获灵感并进入上流社会,但大获成功之余也有致命的作用:身体不适和失控的情绪。而此时埃迪已不能离开这种药,这使他进入了一个黑暗领域,而杀手也在暗处监视他……

◎获奖情况

  第13届美国青少年选择奖(2011)
  最佳剧情片(提名)
  最佳剧情片男演员(提名) 布莱德利·库珀

General
Complete name                  : E:\4K@电影\Limitless.2011.Open.Matte.WEBRip.2160p.UHD.SDR.Eng.DTS-HD.HRA.DD5.1.gerald99
Format                         : Matroska
Format version                 : Version 4
File size                      : 21.1 GiB
Duration                       : 1 h 44 min
Overall bit rate               : 28.9 Mb/s
Movie name                     : Limitless Open Matte
Encoded date                   : UTC 2021-11-08 13:34:49
Writing application            : mkvmerge v62.0.0 ('Apollo') 64-bit
Writing library                : libebml v1.4.2 + libmatroska v1.6.4
IsTruncated                    : Yes
Attachments                    : poster

Video
ID                             : 1
Format                         : HEVC
Format/Info                    : High Efficiency Video Coding
Format profile                 : Main 10@L5@High
Codec ID                       : V_MPEGH/ISO/HEVC
Duration                       : 1 h 44 min
Bit rate                       : 24.6 Mb/s
Width                          : 3 840 pixels
Height                         : 2 160 pixels
Display aspect ratio           : 16:9
Frame rate mode                : Constant
Frame rate                     : 23.976 (24000/1001) FPS
Color space                    : YUV
Chroma subsampling             : 4:2:0
Bit depth                      : 10 bits
Bits/(Pixel*Frame)             : 0.124
Stream size                    : 18.0 GiB (85%)
Title                          : Limitless Open Matte
Default                        : Yes
Forced                         : No
Color range                    : Limited
Color primaries                : BT.709
Transfer characteristics       : BT.709
Matrix coefficients            : BT.709

Audio #1
ID                             : 2
Format                         : DTS XBR
Format/Info                    : Digital Theater Systems
Commercial name                : DTS-HD High Resolution Audio
Codec ID                       : A_DTS
Duration                       : 1 h 44 min
Bit rate mode                  : Constant
Bit rate                       : 3 018 kb/s
Channel(s)                     : 6 channels
Channel layout                 : C L R Ls Rs LFE
Sampling rate                  : 48.0 kHz
Frame rate                     : 93.750 FPS (512 SPF)
Bit depth                      : 24 bits
Compression mode               : Lossy
Stream size                    : 2.21 GiB (10%)
Title                          : Digital Theater Systems High Res Master Audio 5.1
Language                       : English
Default                        : Yes
Forced                         : No

Audio #2
ID                             : 3
Format                         : AC-3
Format/Info                    : Audio Coding 3
Commercial name                : Dolby Digital
Codec ID                       : A_AC3
Duration                       : 1 h 44 min
Bit rate mode                  : Constant
Bit rate                       : 640 kb/s
Channel(s)                     : 6 channels
Channel layout                 : L R C LFE Ls Rs
Sampling rate                  : 48.0 kHz
Frame rate                     : 31.250 FPS (1536 SPF)
Compression mode               : Lossy
Stream size                    : 480 MiB (2%)
Title                          : Dolby Digital 5.1
Language                       : English
Service kind                   : Complete Main
Default                        : Yes
Forced                         : No

Text
ID                             : 4
Format                         : UTF-8
Codec ID                       : S_TEXT/UTF8
Codec ID/Info                  : UTF-8 Plain Text
Title                          : English
Language                       : English
Default                        : No
Forced                         : No

Menu
00:00:00.000                   : :00:00:00.000
00:03:49.104                   : :00:03:49.104
00:06:52.621                   : :00:06:52.621
00:11:02.412                   : :00:11:02.412
00:16:24.108                   : :00:16:24.108
00:20:36.485                   : :00:20:36.485
00:24:16.246                   : :00:24:16.246
00:28:51.772                   : :00:28:51.772
00:34:04.209                   : :00:34:04.209
00:38:12.081                   : :00:38:12.081
00:42:17.535                   : :00:42:17.535
00:46:43.968                   : :00:46:43.968
00:51:04.395                   : :00:51:04.395
00:54:25.679                   : :00:54:25.679
00:59:17.512                   : :00:59:17.512
01:05:38.685                   : :01:05:38.685
01:08:36.571                   : :01:08:36.571
01:11:40.046                   : :01:11:40.046
01:14:40.184                   : :01:14:40.184
01:18:20.446                   : :01:18:20.446
01:21:46.943                   : :01:21:46.943
01:27:14.771                   : :01:27:14.771
01:31:43.164                   : :01:31:43.164
01:38:14.055                   : :01:38:14.055

迅雷下载资源速度为零,资源敏感或被和谐时,推荐使用qBittorrent等无限速下载软件,有条件的推荐115更好的下载软件!

****此区域为收费内容****    需支付 9 金币后可查看立即购买


相关4K资源下载链接:《永无止境 / Limitless (2011) (俄版)》4K高清版本下载/56.08GB




.


上一篇:Soho区惊魂夜 / Last Night in Soho (2021) 4K高清版本下载
下一篇:国王理查德 / King Richard (2021) 4K高清版本下载
回复

使用道具 举报

1094

主题

1167

帖子

9581

积分

超级版主

Rank: 8Rank: 8

积分
9581
 楼主| 发表于 2021-11-19 18:13:12 | 显示全部楼层
Limitless Open Matte.mkv_20211119_180349.024.jpg Limitless Open Matte.mkv_20211119_180442.448.jpg Limitless Open Matte.mkv_20211119_180604.232.jpg Limitless Open Matte.mkv_20211119_180658.784.jpg Limitless Open Matte.mkv_20211119_180804.688.jpg Limitless Open Matte.mkv_20211119_180823.713.jpg
回复 支持 反对

使用道具 举报

41

主题

1488

帖子

4296

积分

4K家园VIP

Rank: 9Rank: 9Rank: 9

积分
4296
发表于 2021-11-19 13:08:02 | 显示全部楼层
啥玩应呀
回复 支持 反对

使用道具 举报

0

主题

6576

帖子

1万

积分

4K家园VIP

Rank: 9Rank: 9Rank: 9

积分
15360
发表于 2021-11-19 17:10:52 | 显示全部楼层
太好啦&萬分感謝版主的無私發佈分享%
回复 支持 反对

使用道具 举报

55

主题

1421

帖子

4139

积分

4K家园VIP

Rank: 9Rank: 9Rank: 9

积分
4139
发表于 2021-11-21 13:03:44 | 显示全部楼层
路过 帮顶 嘿嘿
回复 支持 反对

使用道具 举报

56

主题

1416

帖子

4082

积分

4K家园VIP

Rank: 9Rank: 9Rank: 9

积分
4082
发表于 2021-11-22 06:18:41 | 显示全部楼层
试试先,好用再说
回复 支持 反对

使用道具 举报

2

主题

1123

帖子

3387

积分

4K家园VIP

Rank: 9Rank: 9Rank: 9

积分
3387
发表于 2021-11-22 07:52:10 | 显示全部楼层
出4K版啦,下个看看
回复 支持 反对

使用道具 举报

201

主题

1683

帖子

4609

积分

4K家园VIP

Rank: 9Rank: 9Rank: 9

积分
4609
发表于 2021-11-22 08:52:14 来自手机 | 显示全部楼层
看帖要回,回帖才健康,在踩踩,楼主辛苦了!
回复 支持 反对

使用道具 举报

您需要登录后才可以回帖 登录 | 立即注册

本版积分规则

精彩图文
Archiver|手机版|TAG|Sitemap|新帖|专题|联系我们:邮箱: 4kjia.com@gmail.com   

4k家园   ©2019