凯瑟琳大帝 / The Great (2021) / 第二季全10集 / 4K高清下载

[复制链接]

52

主题

59

帖子

602

积分

版主

Rank: 7Rank: 7Rank: 7

积分
602
 楼主| 发表于 2021-11-19 14:50:48 | 显示全部楼层 |阅读模式
本帖最后由 美剧小虾 于 2021-11-19 16:43 编辑

p2700033135_副本.jpg

◎译  名 凯瑟琳大帝
◎片  名 The Great
◎年  代 2021
◎产  地 澳大利亚 / 英国
◎类  别 剧情 / 喜剧 / 传记 / 历史
◎语  言 英语
◎上映日期 2021-11-19(美国)
◎IMDb评分  8.1/10 from 24272 users
◎IMDb链接  https://www.imdb.com/title/tt2235759/
◎豆瓣评分 0/10 from 0 users
◎豆瓣链接 https://movie.douban.com/subject/35127373/
◎集  数 10
◎导  演 马特·沙克曼 / 科林·巴克西 / 伯特 / 伯蒂 / 格塔·帕特尔 / Ben Chessell
◎编  剧 托尼·麦克纳马拉 / 泰丝·莫里斯 / 詹姆斯·伍德 / Gretel Vella
◎主  演   艾丽·范宁
                  尼古拉斯·霍尔特
                  吉莲·安德森
                  菲比·福克斯
                  萨沙·达万
                  格威利姆·李
                  亚当·戈德利
                  道格拉斯·霍奇斯


◎简  介


         18世纪,一位居住在俄罗斯农村的王室妇女在结婚时被迫在自己的个人幸福和俄罗斯的未来之间做出选择皇帝。
General
Complete name                  : \The.Great.S02E01.2160p.WEB.H265-GGWP.mkv
Format                         : Matroska
Format version                 : Version 4
File size                      : 5.67 GiB
Duration                       : 52 min 34 s
Overall bit rate               : 15.4 Mb/s
Writing application            : mkvmerge v59.0.0 ('Shining Star') 64-bit
Writing library                : libebml v1.4.2 + libmatroska v1.6.4
IsTruncated                    : Yes

Video
ID                             : 1
Format                         : HEVC
Format/Info                    : High Efficiency Video Coding
Format profile                 : Main 10@L5.1@Main
Codec ID                       : V_MPEGH/ISO/HEVC
Duration                       : 52 min 34 s
Bit rate                       : 14.9 Mb/s
Width                          : 3 840 pixels
Height                         : 2 160 pixels
Display aspect ratio           : 16:9
Frame rate mode                : Constant
Frame rate                     : 23.976 (24000/1001) FPS
Color space                    : YUV
Chroma subsampling             : 4:2:0
Bit depth                      : 10 bits
Bits/(Pixel*Frame)             : 0.075
Stream size                    : 5.47 GiB (96%)
Default                        : Yes
Forced                         : No

Audio
ID                             : 2
Format                         : E-AC-3
Format/Info                    : Enhanced AC-3
Commercial name                : Dolby Digital Plus
Codec ID                       : A_EAC3
Duration                       : 52 min 34 s
Bit rate mode                  : Constant
Bit rate                       : 256 kb/s
Channel(s)                     : 6 channels
Channel layout                 : L R C LFE Ls Rs
Sampling rate                  : 48.0 kHz
Frame rate                     : 31.250 FPS (1536 SPF)
Compression mode               : Lossy
Stream size                    : 96.3 MiB (2%)
Language                       : English
Service kind                   : Complete Main
Default                        : Yes
Forced                         : No

Text #1
ID                             : 3
Format                         : UTF-8
Codec ID                       : S_TEXT/UTF8
Codec ID/Info                  : UTF-8 Plain Text
Title                          : English
Language                       : English
Default                        : No
Forced                         : No

Text #2
ID                             : 4
Format                         : UTF-8
Codec ID                       : S_TEXT/UTF8
Codec ID/Info                  : UTF-8 Plain Text
Title                          : Spanish
Language                       : Spanish
Default                        : No
Forced                         : No
下载地址

游客,如果您要查看本帖隐藏内容请回复

游客,如果您要查看本帖隐藏内容请回复


相关第一季下载地址:凯瑟琳大帝 / The Great / 第一季全10集 (2020) 4K高清下载


.

上一篇:成瘾剂量 / Dopesick (2021) / 第一季全8集/4K高清下载
下一篇:早间新闻(内嵌简繁中字)(2021) / 第二季全10集 / 4K高清下载
回复

使用道具 举报

1

主题

1194

帖子

3600

积分

4K家园VIP

Rank: 9Rank: 9Rank: 9

积分
3600
发表于 2021-11-19 14:51:02 | 显示全部楼层
顶顶更健康
回复 支持 反对

使用道具 举报

0

主题

14

帖子

9277

积分

金牌会员

Rank: 6Rank: 6

积分
9277
发表于 2021-11-19 15:02:10 | 显示全部楼层
谢谢楼主分享资源
回复 支持 反对

使用道具 举报

0

主题

6576

帖子

1万

积分

4K家园VIP

Rank: 9Rank: 9Rank: 9

积分
15360
发表于 2021-11-19 17:10:29 | 显示全部楼层
太好啦&萬分感謝版主的無私發佈分享%
回复 支持 反对

使用道具 举报

40

主题

1467

帖子

4205

积分

4K家园VIP

Rank: 9Rank: 9Rank: 9

积分
4205
发表于 2021-11-19 18:50:01 | 显示全部楼层
鼎力支持!!
回复 支持 反对

使用道具 举报

1

主题

1237

帖子

3729

积分

4K家园VIP

Rank: 9Rank: 9Rank: 9

积分
3729
发表于 2021-11-19 19:35:26 来自手机 | 显示全部楼层
我也顶起出售广告位
回复 支持 反对

使用道具 举报

0

主题

2

帖子

25

积分

4K家园VIP

Rank: 9Rank: 9Rank: 9

积分
25
发表于 2021-11-19 20:59:25 | 显示全部楼层
1111111111
回复 支持 反对

使用道具 举报

58

主题

1526

帖子

4388

积分

4K家园VIP

Rank: 9Rank: 9Rank: 9

积分
4388
发表于 2021-11-19 21:26:27 | 显示全部楼层
为毛老子总也抢不到沙发?!!
回复 支持 反对

使用道具 举报

2

主题

1314

帖子

3949

积分

4K家园VIP

Rank: 9Rank: 9Rank: 9

积分
3949
发表于 2021-11-20 00:55:28 来自手机 | 显示全部楼层
垃圾
回复 支持 反对

使用道具 举报

您需要登录后才可以回帖 登录 | 立即注册

本版积分规则

精彩图文
Archiver|手机版|TAG|Sitemap|新帖|专题|联系我们:邮箱: 4kjia.com@gmail.com   

4k家园   ©2019