[4K电影] 国王理查德 / King Richard (2021) 4K高清版本下载

[复制链接]

1094

主题

1167

帖子

9581

积分

超级版主

Rank: 8Rank: 8

积分
9581
 楼主| 发表于 2021-11-19 16:37:19 | 显示全部楼层 |阅读模式
本帖最后由 最爱4K哟 于 2021-11-19 18:01 编辑

QQ图片20211119163619_副本.png

◎译  名 国王理查德 / 王者理查德 / 王者理查(台) / 王者世家(港)
◎片  名 King Richard
◎年  代 2021
◎产  地 美国
◎类  别 剧情 / 运动
◎语  言 英语
◎上映日期 2021-09-02(特柳赖德电影节) / 2021-11-19(美国)
◎IMDb评分  6.8/10 from 1037 users
◎IMDb链接  https://www.imdb.com/title/tt9620288/
◎豆瓣评分 0/10 from 0 users
◎豆瓣链接 https://movie.douban.com/subject/30481476/
◎片  长 138分钟
◎导  演 雷纳尔多·马库斯·格林
◎编  剧 扎克·贝林
◎主  演 威尔·史密斯
                   萨尼雅·西德尼
                   黛米·辛格顿
                   乔·博恩瑟
                   托尼·戈德温
                   迪伦·麦克德莫特
                   安洁纽·艾莉丝
                   苏西·阿布罗梅特
                   诺亚·比恩
                   汉娜·巴尔福特
                   Judith Chapman
                   安迪·比恩
                   Katrina Begin
                   切特·格里索姆
                   小吉米·沃克
                   梅尔·法尔
                   莱拉·克劳福德
                   Adam Cropper
                   Johnny Mansbach
                   Vaughn W. Hebron


◎简  介


       威尔·史密斯主演的网球题材新片《国王理查德》定下导演:雷纳尔多·马库斯·格林(《怪物与人》《停下》),并定档2020年11月25日北美上映。
  该片剧本排2018年好莱坞“剧本黑名单”第二,讲述理查德·威廉姆斯的真实故事,这位精明务实、不屈不挠、没有任何网球背景的父亲培养出了两个网球天才,她们后来成了超级巨星——维纳斯·威廉姆斯和塞雷娜·威廉姆斯(大威小威)。
  理查德·威廉姆斯为女儿们的职业网球生涯起草了一份78页的计划,女孩们在康普顿破旧、杂草丛生的公共球场上学会了这项运动。据报道,在那之前,她们的父亲与一些不喜欢这项运动、不肯让位的年轻硬汉发生了争执。威廉姆斯姐妹后来成为了网球史上最伟大的女选手之二。
General
Complete name                  : \King.Richard.2021.2160p.HMAX.WEB-DL.DDP5.1.Atmos.HDR.HEVC-CM.mkv
Format                         : Matroska
Format version                 : Version 4
File size                      : 18.8 GiB
Duration                       : 2 h 24 min
Overall bit rate               : 18.6 Mb/s
Encoded date                   : UTC 2021-11-19 08:04:52
Writing application            : mkvmerge v61.0.0 ('So') 64-bit
Writing library                : libebml v1.4.2 + libmatroska v1.6.4

Video
ID                             : 1
Format                         : HEVC
Format/Info                    : High Efficiency Video Coding
Format profile                 : Main 10@L5@Main
HDR format                     : SMPTE ST 2086, HDR10 compatible
Codec ID                       : V_MPEGH/ISO/HEVC
Duration                       : 2 h 24 min
Bit rate                       : 17.9 Mb/s
Width                          : 3 840 pixels
Height                         : 2 160 pixels
Display aspect ratio           : 16:9
Frame rate mode                : Constant
Frame rate                     : 23.976 (24000/1001) FPS
Color space                    : YUV
Chroma subsampling             : 4:2:0
Bit depth                      : 10 bits
Bits/(Pixel*Frame)             : 0.090
Stream size                    : 18.1 GiB (96%)
Writing library                : x265 3.4hy:[Linux][GCC 7.5.0][64 bit] 10bit
Encoding settings              : cpuid=1111039 / frame-threads=1 / wpp / no-pmode / no-pme / no-psnr / no-ssim / log-level=2 / input-csp=1 / input-res=3840x2160 / interlace=0 / total-frames=0 / level-idc=0 / high-tier=1 / uhd-bd=0 / ref=4 / no-allow-non-conformance / repeat-headers / annexb / no-aud / no-hrd / info / hash=0 / no-temporal-layers / no-open-gop / min-keyint=96 / keyint=96 / gop-lookahead=0 / bframes=3 / b-adapt=2 / b-pyramid / bframe-bias=0 / rc-lookahead=25 / lookahead-slices=4 / scenecut=40 / hist-scenecut=0 / radl=0 / no-splice / no-intra-refresh / ctu=64 / min-cu-size=8 / rect / no-amp / max-tu-size=32 / tu-inter-depth=1 / tu-intra-depth=1 / limit-tu=0 / rdoq-level=2 / dynamic-rd=0.00 / no-ssim-rd / signhide / no-tskip / nr-intra=0 / nr-inter=0 / no-constrained-intra / strong-intra-smoothing / max-merge=3 / limit-refs=3 / limit-modes / me=3 / subme=3 / merange=57 / temporal-mvp / no-frame-dup / no-hme / weightp / no-weightb / no-analyze-src-pics / deblock=0:0 / sao / no-sao-non-deblock / rd=4 / selective-sao=4 / no-early-skip / rskip / no-fast-intra / no-tskip-fast / no-cu-lossless / no-b-intra / no-splitrd-skip / rdpenalty=0 / psy-rd=2.00 / psy-rdoq=1.00 / no-rd-refine / no-lossless / cbqpoffs=0 / crqpoffs=0 / rc=abr / bitrate=18000 / qcomp=0.60 / qpstep=4 / stats-write=0 / stats-read=2 / cplxblur=20.0 / qblur=0.5 / vbv-maxrate=24500 / vbv-bufsize=24500 / vbv-init=0.6 / vbv-end=0.6 / vbv-end-fr-adj=0.0 / ipratio=1.40 / pbratio=1.30 / aq-mode=2 / aq-strength=1.00 / cutree / zone-count=0 / no-strict-cbr / qg-size=32 / no-rc-grain / qpmax=69 / qpmin=0 / no-const-vbv / sar=0 / overscan=0 / videoformat=5 / range=0 / colorprim=9 / transfer=16 / colormatrix=9 / chromaloc=0 / display-window=0 / master-display=G(13250,34500)B(7500,3000)R(34000,16000)WP(15635,16450)L(10000000,1) / cll=279,38 / min-luma=0 / max-luma=1023 / log2-max-poc-lsb=8 / vui-timing-info / vui-hrd-info / no-concatenation / slices=1 / no-opt-qp-pps / no-opt-ref-list-length-pps / no-multi-pass-opt-rps / scenecut-bias=0.05 / hist-threshold=0.01 / no-opt-cu-delta-qp / no-aq-motion / hdr10 / no-hdr10-opt / no-dhdr10-opt / no-idr-recovery-sei / analysis-reuse-level=0 / analysis-save-reuse-level=0 / analysis-load-reuse-level=0 / scale-factor=0 / refine-intra=0 / refine-inter=0 / refine-mv=1 / refine-ctu-distortion=0 / no-limit-sao / ctu-info=0 / no-lowpass-dct / refine-analysis-type=0 / copy-pic=1 / max-ausize-factor=1.0 / no-dynamic-refine / no-single-sei / no-hevc-aq / no-svt / no-field / qp-adaptation-range=1.00 / no-scenecut-aware-qpconformance-window-offsets / right=0 / bottom=0 / decoder-max-rate=0
Default                        : Yes
Forced                         : No
Color range                    : Limited
Color primaries                : BT.2020
Transfer characteristics       : PQ
Matrix coefficients            : BT.2020 non-constant
Mastering display color primar : Display P3
Mastering display luminance    : min: 0.0001 cd/m2, max: 1000 cd/m2
Maximum Content Light Level    : 279 cd/m2
Maximum Frame-Average Light Le : 38 cd/m2

Audio
ID                             : 2
Format                         : E-AC-3 JOC
Format/Info                    : Enhanced AC-3 with Joint Object Coding
Commercial name                : Dolby Digital Plus with Dolby Atmos
Codec ID                       : A_EAC3
Duration                       : 2 h 24 min
Bit rate mode                  : Constant
Bit rate                       : 768 kb/s
Channel(s)                     : 6 channels
Channel layout                 : L R C LFE Ls Rs
Sampling rate                  : 48.0 kHz
Frame rate                     : 31.250 FPS (1536 SPF)
Compression mode               : Lossy
Stream size                    : 795 MiB (4%)
Title                          : English
Language                       : English
Service kind                   : Complete Main
Default                        : No
Forced                         : No
Complexity index               : 16
Number of dynamic objects      : 15
Bed channel count              : 1 channel
Bed channel configuration      : LFE

Text #1
ID                             : 3
Format                         : UTF-8
Codec ID                       : S_TEXT/UTF8
Codec ID/Info                  : UTF-8 Plain Text
Duration                       : 2 h 18 min
Bit rate                       : 83 b/s
Count of elements              : 2714
Stream size                    : 85.1 KiB (0%)
Title                          : English
Language                       : English
Default                        : No
Forced                         : No

Text #2
ID                             : 4
Format                         : UTF-8
Codec ID                       : S_TEXT/UTF8
Codec ID/Info                  : UTF-8 Plain Text
Duration                       : 2 h 18 min
Bit rate                       : 96 b/s
Count of elements              : 2975
Stream size                    : 97.7 KiB (0%)
Title                          : English [SDH]
Language                       : English
Default                        : No
Forced                         : No

Text #3
ID                             : 5
Format                         : UTF-8
Codec ID                       : S_TEXT/UTF8
Codec ID/Info                  : UTF-8 Plain Text
Duration                       : 2 h 17 min
Bit rate                       : 3 b/s
Count of elements              : 86
Stream size                    : 3.73 KiB (0%)
Title                          : Spanish
Language                       : Spanish
Default                        : No
Forced                         : No

Text #4
ID                             : 6
Format                         : UTF-8
Codec ID                       : S_TEXT/UTF8
Codec ID/Info                  : UTF-8 Plain Text
Duration                       : 2 h 17 min
Bit rate                       : 3 b/s
Count of elements              : 86
Stream size                    : 3.73 KiB (0%)
Title                          : Spanish [SDH]
Language                       : Spanish
Default                        : No
Forced                         : No
迅雷下载资源速度为零,资源敏感或被和谐时,推荐使用qBittorrent等无限速下载软件,有条件的推荐115更好的下载软件!

游客,如果您要查看本帖隐藏内容请回复
游客,如果您要查看本帖隐藏内容请回复

游客,如果您要查看本帖隐藏内容请回复




.


上一篇:永无止境 / Limitless (2011) 4K高清版本下载
下一篇:绿洲乐队1996年在内布沃斯 (1996) 4K高清版本下载
回复

使用道具 举报

1094

主题

1167

帖子

9581

积分

超级版主

Rank: 8Rank: 8

积分
9581
 楼主| 发表于 2021-11-19 18:12:40 | 显示全部楼层
King.Richard.2021.2160p.HMAX.WEB-DL.DDP5.1.Atmos.HDR.HEVC-CM.mkv_20211119_175654.472.jpg King.Richard.2021.2160p.HMAX.WEB-DL.DDP5.1.Atmos.HDR.HEVC-CM.mkv_20211119_175709.113.jpg King.Richard.2021.2160p.HMAX.WEB-DL.DDP5.1.Atmos.HDR.HEVC-CM.mkv_20211119_175727.520.jpg King.Richard.2021.2160p.HMAX.WEB-DL.DDP5.1.Atmos.HDR.HEVC-CM.mkv_20211119_175739.768.jpg King.Richard.2021.2160p.HMAX.WEB-DL.DDP5.1.Atmos.HDR.HEVC-CM.mkv_20211119_175912.584.jpg King.Richard.2021.2160p.HMAX.WEB-DL.DDP5.1.Atmos.HDR.HEVC-CM.mkv_20211119_175941.513.jpg
回复 支持 反对

使用道具 举报

3

主题

1336

帖子

4026

积分

4K家园VIP

Rank: 9Rank: 9Rank: 9

积分
4026
发表于 2021-11-19 16:37:23 | 显示全部楼层
介是神马?!!
回复 支持 反对

使用道具 举报

0

主题

6576

帖子

1万

积分

4K家园VIP

Rank: 9Rank: 9Rank: 9

积分
15360
发表于 2021-11-19 17:09:31 | 显示全部楼层
太好啦&萬分感謝版主的無私發佈分享%
回复 支持 反对

使用道具 举报

54

主题

1441

帖子

4167

积分

4K家园VIP

Rank: 9Rank: 9Rank: 9

积分
4167
发表于 2021-11-19 23:12:23 | 显示全部楼层
占位编辑
回复 支持 反对

使用道具 举报

0

主题

1

帖子

6

积分

新手上路

Rank: 1

积分
6
发表于 2021-11-19 23:25:46 | 显示全部楼层
多谢分享
回复

使用道具 举报

1

主题

1374

帖子

3930

积分

4K家园VIP

Rank: 9Rank: 9Rank: 9

积分
3930
发表于 2021-11-20 06:55:27 | 显示全部楼层
支持,楼下的跟上哈~
回复 支持 反对

使用道具 举报

0

主题

201

帖子

1224

积分

注册会员

Rank: 2

积分
1224
发表于 2021-11-20 12:53:44 | 显示全部楼层
多谢分享
回复

使用道具 举报

3

主题

1732

帖子

4744

积分

中级会员

Rank: 4

积分
4744
发表于 2021-11-20 22:41:23 | 显示全部楼层
路过
回复 支持 反对

使用道具 举报

0

主题

1360

帖子

3924

积分

4K家园VIP

Rank: 9Rank: 9Rank: 9

积分
3924
发表于 2021-11-21 01:19:52 | 显示全部楼层
支持下楼主,顶一个
回复 支持 反对

使用道具 举报

您需要登录后才可以回帖 登录 | 立即注册

本版积分规则

精彩图文
Archiver|手机版|TAG|Sitemap|新帖|专题|联系我们:邮箱: 4kjia.com@gmail.com   

4k家园   ©2019