[4K电影] 绿洲乐队1996年在内布沃斯 (1996) 4K高清版本下载

[复制链接]

1094

主题

1167

帖子

9581

积分

超级版主

Rank: 8Rank: 8

积分
9581
 楼主| 发表于 2021-11-21 11:29:44 | 显示全部楼层 |阅读模式
本帖最后由 最爱4K哟 于 2021-11-21 12:19 编辑

QQ图片20211121112144_副本.png

◎译  名 绿洲乐队1996年在内布沃斯/OASIS Knebworth 1996
◎片  名 Oasis Knebworth 1996
◎年  代 2021
◎产  地 英国
◎类  别 纪录片 / 音乐
◎语  言 英语
◎上映日期 2021-09-23(英国)
◎豆瓣评分 9.1/10 from 172 users
◎豆瓣链接 https://movie.douban.com/subject/35560160/
◎片  长 110分钟
◎导  演 杰克·斯科特 Jake Scott
◎主  演 利亚姆·加拉格尔 Liam Gallagher
      诺尔·加拉格 Noel Gallagher
      保罗·阿瑟斯 Paul Arthurs
      Alan White Alan White
      保罗·麦奎根 Paul McGuigan


◎简  介


        1996年8月10日和11日,25万年轻的音乐迷聚集在Knebworth公园,观看Oasis播放的两部创纪录的、具有时代意义的节目。里程碑式的音乐会在不到一天的时间里就销售一空,超过2%的英国人试图买票。当时英国正从十年的衰退中缓慢复苏。对艺术和文化的信心高涨,带来了凉爽的不列颠尼亚,绿洲的迅速崛起反映了这个国家新发现的信念和昂首阔步。Knebworth演唱会自始至终都是经典曲目,包括香槟超新星、Wonderwall和《不要愤怒地回头看》,这两次演唱会既是乐队成功的顶峰,也是一代人的里程碑式聚会。《绿洲克纳沃思1996》讲述了那个周末的故事,以及绿洲和他们的粉丝之间的特殊关系。这是通过在场歌迷的眼睛讲述的,还有对乐队和音乐会组织者的采访。由杰克·斯科特(Jake Scott)从广泛的音乐会和前所未见的独家视频中执导,这是一场欢乐的、有时是辛辣的电影庆典,庆祝过去25年最重要的音乐会事件之一。
General

Complete name                  : E:\4K@电影 \Oasis.Knebworth.1996.2021.2160p.PMTP.WEB-DL.DDP5.1.HEVC-WELP.mkv
Format                         : Matroska
Format version                 : Version 4
File size                      : 7.66 GiB
Duration                       : 1 h 50 min
Overall bit rate               : 9 946 kb/s
Encoded date                   : UTC 2021-11-19 12:04:50
Writing application            : mkvmerge v62.0.0 ('Apollo') 64-bit
Writing library                : libebml v1.4.2 + libmatroska v1.6.4

Video
ID                             : 1
Format                         : HEVC
Format/Info                    : High Efficiency Video Coding
Format profile                 : Main@L5@Main
Codec ID                       : V_MPEGH/ISO/HEVC
Duration                       : 1 h 50 min
Bit rate                       : 9 108 kb/s
Width                          : 3 840 pixels
Height                         : 2 160 pixels
Display aspect ratio           : 16:9
Frame rate mode                : Constant
Frame rate                     : 25.000 FPS
Color space                    : YUV
Chroma subsampling             : 4:2:0
Bit depth                      : 8 bits
Bits/(Pixel*Frame)             : 0.044
Stream size                    : 7.02 GiB (92%)
Writing library                : x265 3.5+1-f0c1022b6:[Linux][GCC 9.3.0][64 bit] 8bit
Encoding settings              : cpuid=1111039 / frame-threads=3 / wpp / no-pmode / no-pme / no-psnr / no-ssim / log-level=2 / input-csp=1 / input-res=3840x2160 / interlace=0 / total-frames=0 / level-idc=0 / high-tier=1 / uhd-bd=0 / ref=4 / no-allow-non-conformance / repeat-headers / annexb / no-aud / no-eob / no-eos / no-hrd / info / hash=0 / no-temporal-layers / open-gop / min-keyint=50 / keyint=50 / gop-lookahead=0 / bframes=4 / b-adapt=2 / b-pyramid / bframe-bias=0 / rc-lookahead=25 / lookahead-slices=4 / scenecut=0 / hist-scenecut=0 / radl=0 / no-splice / no-intra-refresh / ctu=64 / min-cu-size=8 / rect / no-amp / max-tu-size=32 / tu-inter-depth=1 / tu-intra-depth=1 / limit-tu=0 / rdoq-level=2 / dynamic-rd=0.00 / no-ssim-rd / signhide / no-tskip / nr-intra=0 / nr-inter=0 / no-constrained-intra / strong-intra-smoothing / max-merge=3 / limit-refs=3 / limit-modes / me=3 / subme=3 / merange=57 / temporal-mvp / no-frame-dup / no-hme / weightp / no-weightb / no-analyze-src-pics / deblock=0:0 / sao / no-sao-non-deblock / rd=4 / selective-sao=4 / no-early-skip / rskip / no-fast-intra / no-tskip-fast / no-cu-lossless / no-b-intra / no-splitrd-skip / rdpenalty=0 / psy-rd=2.00 / psy-rdoq=1.00 / no-rd-refine / no-lossless / cbqpoffs=0 / crqpoffs=0 / rc=abr / bitrate=9505 / qcomp=0.60 / qpstep=4 / stats-write=0 / stats-read=2 / cplxblur=20.0 / qblur=0.5 / vbv-maxrate=11406 / vbv-bufsize=9505 / vbv-init=0.8 / min-vbv-fullness=50.0 / max-vbv-fullness=80.0 / ipratio=1.40 / pbratio=1.30 / aq-mode=2 / aq-strength=1.00 / cutree / zone-count=0 / no-strict-cbr / qg-size=32 / no-rc-grain / qpmax=69 / qpmin=0 / no-const-vbv / sar=1 / overscan=0 / videoformat=5 / range=0 / colorprim=1 / transfer=1 / colormatrix=1 / chromaloc=0 / display-window=0 / cll=0,0 / min-luma=0 / max-luma=255 / log2-max-poc-lsb=8 / vui-timing-info / vui-hrd-info / slices=1 / no-opt-qp-pps / no-opt-ref-list-length-pps / no-multi-pass-opt-rps / scenecut-bias=0.05 / hist-threshold=0.03 / no-opt-cu-delta-qp / no-aq-motion / no-hdr10 / no-hdr10-opt / no-dhdr10-opt / no-idr-recovery-sei / analysis-reuse-level=0 / analysis-save-reuse-level=0 / analysis-load-reuse-level=0 / scale-factor=0 / refine-intra=0 / refine-inter=0 / refine-mv=1 / refine-ctu-distortion=0 / no-limit-sao / ctu-info=0 / no-lowpass-dct / refine-analysis-type=0 / copy-pic=1 / max-ausize-factor=1.0 / no-dynamic-refine / no-single-sei / no-hevc-aq / no-svt / no-field / qp-adaptation-range=1.00 / scenecut-aware-qp=0conformance-window-offsets / right=0 / bottom=0 / decoder-max-rate=0 / no-vbv-live-multi-pass
Default                        : Yes
Forced                         : No
Color range                    : Limited
Color primaries                : BT.709
Transfer characteristics       : BT.709
Matrix coefficients            : BT.709

Audio
ID                             : 2
Format                         : E-AC-3
Format/Info                    : Enhanced AC-3
Commercial name                : Dolby Digital Plus
Codec ID                       : A_EAC3
Duration                       : 1 h 50 min
Bit rate mode                  : Constant
Bit rate                       : 640 kb/s
Channel(s)                     : 6 channels
Channel layout                 : L R C LFE Ls Rs
Sampling rate                  : 48.0 kHz
Frame rate                     : 31.250 FPS (1536 SPF)
Compression mode               : Lossy
Stream size                    : 505 MiB (6%)
Language                       : English
Service kind                   : Complete Main
Default                        : Yes
Forced                         : No

Text #1
ID                             : 3
Format                         : UTF-8
Codec ID                       : S_TEXT/UTF8
Codec ID/Info                  : UTF-8 Plain Text
Language                       : English
Default                        : No
Forced                         : No

Text #2
ID                             : 4
Format                         : UTF-8
Codec ID                       : S_TEXT/UTF8
Codec ID/Info                  : UTF-8 Plain Text
Title                          : SDH
Language                       : English
Default                        : No
Forced                         : No

迅雷下载资源速度为零,资源敏感或被和谐时,推荐使用qBittorrent等无限速下载软件,有条件的推荐115更好的下载软件!

游客,如果您要查看本帖隐藏内容请回复







上一篇:国王理查德 / King Richard (2021) 4K高清版本下载
下一篇:黑神锅传奇 / The Black Cauldron (1985) 4K高清版本下载
回复

使用道具 举报

2

主题

1263

帖子

3807

积分

4K家园VIP

Rank: 9Rank: 9Rank: 9

积分
3807
发表于 2021-11-21 11:29:49 | 显示全部楼层
我只是看看啊,不说话
回复 支持 反对

使用道具 举报

41

主题

1492

帖子

4274

积分

4K家园VIP

Rank: 9Rank: 9Rank: 9

积分
4274
发表于 2021-11-21 11:43:01 | 显示全部楼层
学习下
回复 支持 反对

使用道具 举报

1

主题

1276

帖子

3712

积分

4K家园VIP

Rank: 9Rank: 9Rank: 9

积分
3712
发表于 2021-11-21 12:00:15 | 显示全部楼层
楼主这资源不错,我收藏了
回复 支持 反对

使用道具 举报

1

主题

1464

帖子

4242

积分

4K家园VIP

Rank: 9Rank: 9Rank: 9

积分
4242
发表于 2021-11-21 12:14:57 | 显示全部楼层
高手云集 果断围观
回复 支持 反对

使用道具 举报

40

主题

1448

帖子

4160

积分

4K家园VIP

Rank: 9Rank: 9Rank: 9

积分
4160
发表于 2021-11-21 12:37:08 | 显示全部楼层
支持一下楼主,顶起来
回复 支持 反对

使用道具 举报

0

主题

6576

帖子

1万

积分

4K家园VIP

Rank: 9Rank: 9Rank: 9

积分
15360
发表于 2021-11-21 18:04:14 | 显示全部楼层
太好啦&萬分感謝版主的無私發佈分享%
回复 支持 反对

使用道具 举报

您需要登录后才可以回帖 登录 | 立即注册

本版积分规则

精彩图文
Archiver|手机版|TAG|Sitemap|新帖|专题|联系我们:邮箱: 4kjia.com@gmail.com   

4k家园   ©2019