早间新闻(内嵌简繁中字)(2021) / 第二季全10集 / 4K高清下载

[复制链接]

52

主题

59

帖子

602

积分

版主

Rank: 7Rank: 7Rank: 7

积分
602
 楼主| 发表于 2021-11-21 12:38:54 | 显示全部楼层 |阅读模式
本帖最后由 美剧小虾 于 2021-11-21 19:01 编辑

p2678019489_副本.jpg

◎译  名 早间新闻 第二季/晨间风云/晨间直播秀(台)/晨早直播室(港)
◎片  名 The Morning Show Season 2
◎年  代 2021
◎产  地 美国
◎类  别 剧情
◎语  言 英语
◎上映日期 2021-09-17(美国)
◎IMDb评分  8.3/10 from 79841 users
◎IMDb链接  https://www.imdb.com/title/tt7203552/
◎豆瓣评分 8.8/10 from 145 users
◎豆瓣链接 https://douban.com/subject/34882957/
◎集  数 10
◎片  长 60分钟
◎导  演 米密·莱德 Mimi Leder
◎编  剧 凯瑞·依云 Kerry Ehrin / 亚当·米尔克 Adam Milch / 艾丽卡·利佩兹 Erica Lipez / 杰伊·卡森 Jay Carson
◎主  演 詹妮弗·安妮斯顿 Jennifer Aniston
       瑞茜·威瑟斯彭 Reese Witherspoon
       内斯特·卡博内尔 Nestor Carbonell
       史蒂夫·卡瑞尔 Steve Carell
       朱丽安娜· 玛格丽丝 Julianna Margulies
       比利·克鲁德普 Billy Crudup
       杰克·达文波特 Jack Davenport
       马克·杜普拉斯 Mark Duplass
       Alex Fatovich Alex Fatovich
       詹妮娜·加万卡 Janina Gavankar
       Shari Belafonte Shari Belafonte
       朱迪·凯恩 Judy Kain
       塔拉·卡拉西安 Tara Karsian
       Hannah Werntz Hannah Werntz
       格里塔·李 Greta Lee
       乔·马里内利 Joe Marinelli
       古古·姆巴塔-劳 Gugu Mbatha-Raw
       卢瑞·奥康纳 Ruairi O'Connor
       哈桑·明哈杰 Hasan Minhaj
       瓦莱丽亚·戈利诺 Valeria Golino
       安东尼·莫利纳利 Anthony Molinari
       凯茜·纳基麦 Kathy Najimy
       凯伦·皮特曼 Karen Pittman
       蓓尔·波利 Bel Powley
       乌娜·罗奇 Oona Roche
       马克·托蒂 Mark Totty



◎简  介


  在第一季爆发性事件之后,本季的晨间秀团队从亚历克斯(詹妮弗·安妮斯顿饰)和布拉德利(里斯·威瑟斯彭饰)动作的废墟中走出来,进入了一个新的UBA和一个不断变化的世界,身份就是一切,我们现在的身份和我们真正的身份之间的鸿沟开始发挥作用。除安妮斯顿和威瑟斯彭外,第二季的回归演员阵容还包括史蒂夫·卡雷尔、比利·克鲁杜普、马克·杜普拉斯、内斯特·卡博内尔、卡伦·皮特曼、贝尔·鲍利、德西恩·特里、贾尼娜·加万卡、汤姆·欧文和玛西亚·盖伊·哈登。新加入本季的明星有格雷塔·李、鲁埃里·奥康纳、哈桑·明哈吉、西比尔·理查兹、塔拉·卡辛、瓦莱里亚·戈利诺和朱丽安娜·马古利斯。
General
Complete name                  : J:\The.Morning.Show.S02E01.My.Least.Favorite.Year.2160p.ATVP.WEB-DL.DDP5.1.Atmos.DV.MP4.x265-DVSUX.mp4
Format                         : MPEG-4
Format profile                 : Base Media / Version 2
Codec ID                       : mp42 (isom/mp42/dby1)
File size                      : 9.53 GiB
Duration                       : 53 min 8 s
Overall bit rate mode          : Variable
Overall bit rate               : 25.7 Mb/s
Encoded date                   : UTC 2021-11-20 10:44:02
Tagged date                    : UTC 2021-11-20 10:44:02

Video
ID                             : 1
Format                         : HEVC
Format/Info                    : High Efficiency Video Coding
Format profile                 : Main 10@L5@High
HDR format                     : Dolby Vision, Version 1.0, dvhe.05.06, BL+RPU
Codec ID                       : dvhe
Codec ID/Info                  : High Efficiency Video Coding with Dolby Vision
Duration                       : 53 min 8 s
Bit rate                       : 24.9 Mb/s
Width                          : 3 840 pixels
Height                         : 1 920 pixels
Display aspect ratio           : 2.000
Frame rate mode                : Constant
Frame rate                     : 23.976 (24000/1001) FPS
Color space                    : YUV
Chroma subsampling             : 4:2:0
Bit depth                      : 10 bits
Bits/(Pixel*Frame)             : 0.141
Stream size                    : 9.24 GiB (97%)
Default                        : Yes
Alternate group                : 1
Encoded date                   : UTC 2021-11-20 10:43:30
Tagged date                    : UTC 2021-11-20 10:44:12
Codec configuration box        : hvcC+dvcC

Audio
ID                             : 2
Format                         : E-AC-3 JOC
Format/Info                    : Enhanced AC-3 with Joint Object Coding
Commercial name                : Dolby Digital Plus with Dolby Atmos
Codec ID                       : ec-3
Duration                       : 53 min 8 s
Bit rate mode                  : Constant
Bit rate                       : 768 kb/s
Maximum bit rate               : 811 kb/s
Channel(s)                     : 6 channels
Channel layout                 : L R C LFE Ls Rs
Sampling rate                  : 48.0 kHz
Frame rate                     : 31.250 FPS (1536 SPF)
Compression mode               : Lossy
Stream size                    : 292 MiB (3%)
Title                          : English
Language                       : English
Service kind                   : Complete Main
Default                        : Yes
Alternate group                : 1
Tagged date                    : UTC 2021-11-20 10:44:12
Complexity index               : Not present / 16
Number of dynamic objects      : 15
Bed channel count              : 1 channel
Bed channel configuration      : LFE

Text #1
ID                             : 3
Format                         : Timed Text
Codec ID                       : tx3g
Duration                       : 51 min 35 s
Bit rate mode                  : Variable
Bit rate                       : 115 b/s
Stream size                    : 43.5 KiB (0%)
Title                          : English
Language                       : English
Forced                         : No
Encoded date                   : UTC 2021-11-20 10:44:09
Tagged date                    : UTC 2021-11-20 10:44:12

Text #2
ID                             : 4
Format                         : Timed Text
Codec ID                       : tx3g
Duration                       : 51 min 33 s
Bit rate mode                  : Variable
Bit rate                       : 105 b/s
Stream size                    : 39.8 KiB (0%)
Title                          : English
Language                       : English
Forced                         : No
Encoded date                   : UTC 2021-11-20 10:44:09
Tagged date                    : UTC 2021-11-20 10:44:12

Text #3
ID                             : 5
Format                         : Timed Text
Codec ID                       : tx3g
Duration                       : 53 min 0 s
Bit rate mode                  : Variable
Bit rate                       : 141 b/s
Stream size                    : 54.6 KiB (0%)
Title                          : Arabic
Language                       : Arabic
Forced                         : No
Encoded date                   : UTC 2021-11-20 10:44:09
Tagged date                    : UTC 2021-11-20 10:44:12

Text #4
ID                             : 6
Format                         : Timed Text
Codec ID                       : tx3g
Duration                       : 53 min 0 s
Bit rate mode                  : Variable
Bit rate                       : 133 b/s
Stream size                    : 51.7 KiB (0%)
Title                          : Bulgarian
Language                       : Bulgarian
Forced                         : No
Encoded date                   : UTC 2021-11-20 10:44:09
Tagged date                    : UTC 2021-11-20 10:44:12

Text #5
ID                             : 7
Format                         : Timed Text
Codec ID                       : tx3g
Duration                       : 53 min 0 s
Bit rate mode                  : Variable
Bit rate                       : 86 b/s
Stream size                    : 33.5 KiB (0%)
Title                          : 繁体(粤语)
Language                       : 中文
Forced                         : No
Encoded date                   : UTC 2021-11-20 10:44:09
Tagged date                    : UTC 2021-11-20 10:44:12


Text #6
ID                             : 8
Format                         : Timed Text
Codec ID                       : tx3g
Duration                       : 53 min 0 s
Bit rate mode                  : Variable
Bit rate                       : 87 b/s
Stream size                    : 33.8 KiB (0%)
Title                          : 简体中文
Language                       : 中文
Forced                         : No
Encoded date                   : UTC 2021-11-20 10:44:09
Tagged date                    : UTC 2021-11-20 10:44:12


Text #7
ID                             : 9
Format                         : Timed Text
Codec ID                       : tx3g
Duration                       : 53 min 0 s
Bit rate mode                  : Variable
Bit rate                       : 87 b/s
Stream size                    : 33.6 KiB (0%)
Title                          : 繁体中文
Language                       : 中文
Forced                         : No
Encoded date                   : UTC 2021-11-20 10:44:09
Tagged date                    : UTC 2021-11-20 10:44:12


Text #8
ID                             : 10
Format                         : Timed Text
Codec ID                       : tx3g
Duration                       : 53 min 0 s
Bit rate mode                  : Variable
Bit rate                       : 93 b/s
Stream size                    : 36.2 KiB (0%)
Title                          : Czech
Language                       : Czech
Forced                         : No
Encoded date                   : UTC 2021-11-20 10:44:09
Tagged date                    : UTC 2021-11-20 10:44:12

Text #9
ID                             : 11
Format                         : Timed Text
Codec ID                       : tx3g
Duration                       : 53 min 0 s
Bit rate mode                  : Variable
Bit rate                       : 87 b/s
Stream size                    : 33.8 KiB (0%)
Title                          : Danish
Language                       : Danish
Forced                         : No
Encoded date                   : UTC 2021-11-20 10:44:09
Tagged date                    : UTC 2021-11-20 10:44:12

Text #10
ID                             : 12
Format                         : Timed Text
Codec ID                       : tx3g
Duration                       : 53 min 0 s
Bit rate mode                  : Variable
Bit rate                       : 82 b/s
Stream size                    : 31.8 KiB (0%)
Title                          : Dutch
Language                       : Dutch
Forced                         : No
Encoded date                   : UTC 2021-11-20 10:44:09
Tagged date                    : UTC 2021-11-20 10:44:12

Text #11
ID                             : 13
Format                         : Timed Text
Codec ID                       : tx3g
Duration                       : 53 min 0 s
Bit rate mode                  : Variable
Bit rate                       : 87 b/s
Stream size                    : 33.9 KiB (0%)
Title                          : Estonian
Language                       : Estonian
Forced                         : No
Encoded date                   : UTC 2021-11-20 10:44:10
Tagged date                    : UTC 2021-11-20 10:44:12

Text #12
ID                             : 14
Format                         : Timed Text
Codec ID                       : tx3g
Duration                       : 53 min 0 s
Bit rate mode                  : Variable
Bit rate                       : 93 b/s
Stream size                    : 36.0 KiB (0%)
Title                          : Finnish
Language                       : Finnish
Forced                         : No
Encoded date                   : UTC 2021-11-20 10:44:10
Tagged date                    : UTC 2021-11-20 10:44:12

Text #13
ID                             : 15
Format                         : Timed Text
Codec ID                       : tx3g
Duration                       : 52 min 9 s
Bit rate mode                  : Variable
Bit rate                       : 86 b/s
Stream size                    : 32.7 KiB (0%)
Title                          : French
Language                       : French
Forced                         : No
Encoded date                   : UTC 2021-11-20 10:44:10
Tagged date                    : UTC 2021-11-20 10:44:12

Text #14
ID                             : 16
Format                         : Timed Text
Codec ID                       : tx3g
Duration                       : 52 min 9 s
Bit rate mode                  : Variable
Bit rate                       : 86 b/s
Stream size                    : 32.7 KiB (0%)
Title                          : French
Language                       : French
Forced                         : No
Encoded date                   : UTC 2021-11-20 10:44:10
Tagged date                    : UTC 2021-11-20 10:44:12

Text #15
ID                             : 17
Format                         : Timed Text
Codec ID                       : tx3g
Duration                       : 53 min 2 s
Bit rate mode                  : Variable
Bit rate                       : 103 b/s
Stream size                    : 40.1 KiB (0%)
Title                          : German
Language                       : German
Forced                         : No
Encoded date                   : UTC 2021-11-20 10:44:10
Tagged date                    : UTC 2021-11-20 10:44:12

Text #16
ID                             : 18
Format                         : Timed Text
Codec ID                       : tx3g
Duration                       : 53 min 0 s
Bit rate mode                  : Variable
Bit rate                       : 155 b/s
Stream size                    : 60.2 KiB (0%)
Title                          : Greek
Language                       : Greek
Forced                         : No
Encoded date                   : UTC 2021-11-20 10:44:10
Tagged date                    : UTC 2021-11-20 10:44:12

Text #17
ID                             : 19
Format                         : Timed Text
Codec ID                       : tx3g
Duration                       : 53 min 0 s
Bit rate mode                  : Variable
Bit rate                       : 125 b/s
Stream size                    : 48.5 KiB (0%)
Title                          : Hebrew
Language                       : Hebrew
Forced                         : No
Encoded date                   : UTC 2021-11-20 10:44:10
Tagged date                    : UTC 2021-11-20 10:44:12

Text #18
ID                             : 20
Format                         : Timed Text
Codec ID                       : tx3g
Duration                       : 53 min 0 s
Bit rate mode                  : Variable
Bit rate                       : 244 b/s
Stream size                    : 94.5 KiB (0%)
Title                          : Hindi
Language                       : Hindi
Forced                         : No
Encoded date                   : UTC 2021-11-20 10:44:10
Tagged date                    : UTC 2021-11-20 10:44:12

Text #19
ID                             : 21
Format                         : Timed Text
Codec ID                       : tx3g
Duration                       : 53 min 0 s
Bit rate mode                  : Variable
Bit rate                       : 98 b/s
Stream size                    : 38.0 KiB (0%)
Title                          : Hungarian
Language                       : Hungarian
Forced                         : No
Encoded date                   : UTC 2021-11-20 10:44:10
Tagged date                    : UTC 2021-11-20 10:44:12

Text #20
ID                             : 22
Format                         : Timed Text
Codec ID                       : tx3g
Duration                       : 53 min 0 s
Bit rate mode                  : Variable
Bit rate                       : 100 b/s
Stream size                    : 38.7 KiB (0%)
Title                          : Indonesian
Language                       : Indonesian
Forced                         : No
Encoded date                   : UTC 2021-11-20 10:44:10
Tagged date                    : UTC 2021-11-20 10:44:12

Text #21
ID                             : 23
Format                         : Timed Text
Codec ID                       : tx3g
Duration                       : 53 min 1 s
Bit rate mode                  : Variable
Bit rate                       : 100 b/s
Stream size                    : 38.7 KiB (0%)
Title                          : Italian
Language                       : Italian
Forced                         : No
Encoded date                   : UTC 2021-11-20 10:44:10
Tagged date                    : UTC 2021-11-20 10:44:12

Text #22
ID                             : 24
Format                         : Timed Text
Codec ID                       : tx3g
Duration                       : 53 min 7 s
Bit rate mode                  : Variable
Bit rate                       : 74 b/s
Stream size                    : 28.6 KiB (0%)
Title                          : Japanese
Language                       : Japanese
Forced                         : No
Encoded date                   : UTC 2021-11-20 10:44:10
Tagged date                    : UTC 2021-11-20 10:44:12

Text #23
ID                             : 25
Format                         : Timed Text
Codec ID                       : tx3g
Duration                       : 53 min 0 s
Bit rate mode                  : Variable
Bit rate                       : 97 b/s
Stream size                    : 37.7 KiB (0%)
Title                          : Korean
Language                       : Korean
Forced                         : No
Encoded date                   : UTC 2021-11-20 10:44:10
Tagged date                    : UTC 2021-11-20 10:44:12

Text #24
ID                             : 26
Format                         : Timed Text
Codec ID                       : tx3g
Duration                       : 53 min 0 s
Bit rate mode                  : Variable
Bit rate                       : 105 b/s
Stream size                    : 40.7 KiB (0%)
Title                          : Latvian
Language                       : Latvian
Forced                         : No
Encoded date                   : UTC 2021-11-20 10:44:10
Tagged date                    : UTC 2021-11-20 10:44:12

Text #25
ID                             : 27
Format                         : Timed Text
Codec ID                       : tx3g
Duration                       : 53 min 0 s
Bit rate mode                  : Variable
Bit rate                       : 95 b/s
Stream size                    : 36.9 KiB (0%)
Title                          : Lithuanian
Language                       : Lithuanian
Forced                         : No
Encoded date                   : UTC 2021-11-20 10:44:10
Tagged date                    : UTC 2021-11-20 10:44:12

Text #26
ID                             : 28
Format                         : Timed Text
Codec ID                       : tx3g
Duration                       : 53 min 0 s
Bit rate mode                  : Variable
Bit rate                       : 97 b/s
Stream size                    : 37.7 KiB (0%)
Title                          : Malay
Language                       : Malay
Forced                         : No
Encoded date                   : UTC 2021-11-20 10:44:11
Tagged date                    : UTC 2021-11-20 10:44:12

Text #27
ID                             : 29
Format                         : Timed Text
Codec ID                       : tx3g
Duration                       : 53 min 0 s
Bit rate mode                  : Variable
Bit rate                       : 87 b/s
Stream size                    : 33.7 KiB (0%)
Title                          : Norwegian
Language                       : Norwegian
Forced                         : No
Encoded date                   : UTC 2021-11-20 10:44:11
Tagged date                    : UTC 2021-11-20 10:44:12

Text #28
ID                             : 30
Format                         : Timed Text
Codec ID                       : tx3g
Duration                       : 53 min 0 s
Bit rate mode                  : Variable
Bit rate                       : 88 b/s
Stream size                    : 34.2 KiB (0%)
Title                          : Polish
Language                       : Polish
Forced                         : No
Encoded date                   : UTC 2021-11-20 10:44:11
Tagged date                    : UTC 2021-11-20 10:44:12

Text #29
ID                             : 31
Format                         : Timed Text
Codec ID                       : tx3g
Duration                       : 53 min 0 s
Bit rate mode                  : Variable
Bit rate                       : 85 b/s
Stream size                    : 33.2 KiB (0%)
Title                          : Portuguese
Language                       : Portuguese
Forced                         : No
Encoded date                   : UTC 2021-11-20 10:44:11
Tagged date                    : UTC 2021-11-20 10:44:12

Text #30
ID                             : 32
Format                         : Timed Text
Codec ID                       : tx3g
Duration                       : 53 min 0 s
Bit rate mode                  : Variable
Bit rate                       : 99 b/s
Stream size                    : 38.2 KiB (0%)
Title                          : Portuguese
Language                       : Portuguese
Forced                         : No
Encoded date                   : UTC 2021-11-20 10:44:11
Tagged date                    : UTC 2021-11-20 10:44:12

Text #31
ID                             : 33
Format                         : Timed Text
Codec ID                       : tx3g
Duration                       : 53 min 0 s
Bit rate mode                  : Variable
Bit rate                       : 160 b/s
Stream size                    : 62.0 KiB (0%)
Title                          : Russian
Language                       : Russian
Forced                         : No
Encoded date                   : UTC 2021-11-20 10:44:11
Tagged date                    : UTC 2021-11-20 10:44:12

Text #32
ID                             : 34
Format                         : Timed Text
Codec ID                       : tx3g
Duration                       : 53 min 0 s
Bit rate mode                  : Variable
Bit rate                       : 88 b/s
Stream size                    : 34.2 KiB (0%)
Title                          : Slovak
Language                       : Slovak
Forced                         : No
Encoded date                   : UTC 2021-11-20 10:44:11
Tagged date                    : UTC 2021-11-20 10:44:12

Text #33
ID                             : 35
Format                         : Timed Text
Codec ID                       : tx3g
Duration                       : 53 min 0 s
Bit rate mode                  : Variable
Bit rate                       : 80 b/s
Stream size                    : 30.9 KiB (0%)
Title                          : Slovenian
Language                       : Slovenian
Forced                         : No
Encoded date                   : UTC 2021-11-20 10:44:11
Tagged date                    : UTC 2021-11-20 10:44:12

Text #34
ID                             : 36
Format                         : Timed Text
Codec ID                       : tx3g
Duration                       : 53 min 0 s
Bit rate mode                  : Variable
Bit rate                       : 98 b/s
Stream size                    : 37.9 KiB (0%)
Title                          : Spanish-EU
Language                       : Spanish
Forced                         : No
Encoded date                   : UTC 2021-11-20 10:44:11
Tagged date                    : UTC 2021-11-20 10:44:12

Text #35
ID                             : 37
Format                         : Timed Text
Codec ID                       : tx3g
Duration                       : 53 min 0 s
Bit rate mode                  : Variable
Bit rate                       : 99 b/s
Stream size                    : 38.6 KiB (0%)
Title                          : Spanish-EU
Language                       : Spanish
Forced                         : No
Encoded date                   : UTC 2021-11-20 10:44:11
Tagged date                    : UTC 2021-11-20 10:44:12

Text #36
ID                             : 38
Format                         : Timed Text
Codec ID                       : tx3g
Duration                       : 53 min 0 s
Bit rate mode                  : Variable
Bit rate                       : 98 b/s
Stream size                    : 37.9 KiB (0%)
Title                          : Swedish
Language                       : Swedish
Forced                         : No
Encoded date                   : UTC 2021-11-20 10:44:11
Tagged date                    : UTC 2021-11-20 10:44:12

Text #37
ID                             : 39
Format                         : Timed Text
Codec ID                       : tx3g
Duration                       : 53 min 0 s
Bit rate mode                  : Variable
Bit rate                       : 303 b/s
Stream size                    : 117 KiB (0%)
Title                          : Tamil
Language                       : Tamil
Forced                         : No
Encoded date                   : UTC 2021-11-20 10:44:11
Tagged date                    : UTC 2021-11-20 10:44:12

Text #38
ID                             : 40
Format                         : Timed Text
Codec ID                       : tx3g
Duration                       : 53 min 0 s
Bit rate mode                  : Variable
Bit rate                       : 259 b/s
Stream size                    : 100 KiB (0%)
Title                          : Telugu
Language                       : Telugu
Forced                         : No
Encoded date                   : UTC 2021-11-20 10:44:11
Tagged date                    : UTC 2021-11-20 10:44:12

Text #39
ID                             : 41
Format                         : Timed Text
Codec ID                       : tx3g
Duration                       : 53 min 0 s
Bit rate mode                  : Variable
Bit rate                       : 226 b/s
Stream size                    : 87.6 KiB (0%)
Title                          : Thai
Language                       : Thai
Forced                         : No
Encoded date                   : UTC 2021-11-20 10:44:11
Tagged date                    : UTC 2021-11-20 10:44:12

Text #40
ID                             : 42
Format                         : Timed Text
Codec ID                       : tx3g
Duration                       : 53 min 0 s
Bit rate mode                  : Variable
Bit rate                       : 103 b/s
Stream size                    : 40.1 KiB (0%)
Title                          : Turkish
Language                       : Turkish
Forced                         : No
Encoded date                   : UTC 2021-11-20 10:44:12
Tagged date                    : UTC 2021-11-20 10:44:12

Text #41
ID                             : 43
Format                         : Timed Text
Codec ID                       : tx3g
Duration                       : 53 min 0 s
Bit rate mode                  : Variable
Bit rate                       : 135 b/s
Stream size                    : 52.5 KiB (0%)
Title                          : Ukrainian
Language                       : Ukrainian
Forced                         : No
Encoded date                   : UTC 2021-11-20 10:44:12
Tagged date                    : UTC 2021-11-20 10:44:12

Text #42
ID                             : 44
Format                         : Timed Text
Codec ID                       : tx3g
Duration                       : 53 min 0 s
Bit rate mode                  : Variable
Bit rate                       : 122 b/s
Stream size                    : 47.3 KiB (0%)
Title                          : Vietnamese
Language                       : Vietnamese
Forced                         : No
Encoded date                   : UTC 2021-11-20 10:44:12
Tagged date                    : UTC 2021-11-20 10:44:12


下载地址

游客,如果您要查看本帖隐藏内容请回复

游客,如果您要查看本帖隐藏内容请回复

游客,如果您要查看本帖隐藏内容请回复

游客,如果您要查看本帖隐藏内容请回复











上一篇:凯瑟琳大帝 / The Great (2021) / 第二季全10集 / 4K高清下载
下一篇:基地(内嵌简繁中字)(2021) / 第一季全10集 / 4K高清版本下载
回复

使用道具 举报

3

主题

1579

帖子

4333

积分

4K家园VIP

Rank: 9Rank: 9Rank: 9

积分
4333
发表于 2021-11-21 12:39:14 | 显示全部楼层
打酱油的人拉,回复下赚取积分
回复 支持 反对

使用道具 举报

0

主题

6576

帖子

1万

积分

4K家园VIP

Rank: 9Rank: 9Rank: 9

积分
15360
发表于 2021-11-21 18:05:28 | 显示全部楼层
太好啦&萬分感謝版主的無私發佈分享%
回复 支持 反对

使用道具 举报

0

主题

1324

帖子

3822

积分

4K家园VIP

Rank: 9Rank: 9Rank: 9

积分
3822
发表于 2021-11-22 20:12:46 来自手机 | 显示全部楼层
感谢分享
回复 支持 反对

使用道具 举报

46

主题

1441

帖子

4137

积分

4K家园VIP

Rank: 9Rank: 9Rank: 9

积分
4137
发表于 2021-11-24 15:58:37 | 显示全部楼层
我也来顶一下..
回复 支持 反对

使用道具 举报

1

主题

1259

帖子

3799

积分

4K家园VIP

Rank: 9Rank: 9Rank: 9

积分
3799
发表于 6 天前 | 显示全部楼层
鼎力支持!!
回复 支持 反对

使用道具 举报

0

主题

6576

帖子

1万

积分

4K家园VIP

Rank: 9Rank: 9Rank: 9

积分
15360
发表于 6 天前 | 显示全部楼层
太好啦&萬分感謝版主的無私發佈分享%
回复 支持 反对

使用道具 举报

3

主题

1251

帖子

3771

积分

4K家园VIP

Rank: 9Rank: 9Rank: 9

积分
3771
发表于 5 天前 | 显示全部楼层
占坑编辑ing
回复 支持 反对

使用道具 举报

您需要登录后才可以回帖 登录 | 立即注册

本版积分规则

精彩图文
Archiver|手机版|TAG|Sitemap|新帖|专题|联系我们:邮箱: 4kjia.com@gmail.com   

4k家园   ©2019