[4Kjia独享4K资源] 致埃文·汉森 / Dear Evan Hansen (2021) 4K高清版本下载

[复制链接]

1134

主题

1211

帖子

9838

积分

超级版主

Rank: 8Rank: 8

积分
9838
 楼主| 发表于 2021-11-22 21:15:43 | 显示全部楼层 |阅读模式
本帖最后由 最爱4K哟 于 2021-11-23 10:36 编辑

QQ图片20211122210255_副本.png

◎译  名 致埃文·汉森/亲爱的埃文·汉森
◎片  名 Dear Evan Hansen
◎年  代 2021
◎产  地 美国
◎类  别 剧情 / 歌舞
◎语  言 英语
◎上映日期 2021-09-09(多伦多电影节) / 2021-09-24(美国)
◎IMDb评分  6.1/10 from 7291 users
◎IMDb链接  https://www.imdb.com/title/tt9357050
◎豆瓣评分 6.8/10 from 1576users
◎豆瓣链接 https://movie.douban.com/subject/30391140/
◎片  长 137分钟
◎导  演 斯蒂芬·卓博斯基 Stephen Chbosky
◎编  剧 史蒂文·莱文森 Steven Levenson / 本吉·帕塞克 Benj Pasek / 贾斯廷·保罗 Justin Paul
◎主  演 本·普拉特 Ben Platt
      朱丽安·摩尔 Julianne Moore
      凯特琳·德弗 Kaitlyn Dever
      艾米·亚当斯 Amy Adams
      丹尼·皮诺 Danny Pino
      科尔顿·瑞安 Colton Ryan
      阿曼德拉·斯坦伯格 Amandla Stenberg
      尼克·多达尼 Nik Dodani
      艾萨克·鲍威尔 Isaac Powell
      金·罗森 Kim Rosen



◎简  介

  聚焦青少年自杀、心理疾病等问题,讲述一个深受社交恐惧折磨的高中生编造故事,试图接近一个已自杀的同学的家庭。对“局外人”、心理创伤和人性的探讨细腻、私人,触动心灵。

General
Complete name                  : E:\4K@电影\Dear.Evan.Hansen.2021.2160p.WEB-DL.DDP5.1.Atmos.HDR.HEVC-EVO.mkv
Format                         : Matroska
Format version                 : Version 4
File size                      : 14.4 GiB
Duration                       : 2 h 17 min
Overall bit rate               : 15.0 Mb/s
Encoded date                   : UTC 2021-11-22 12:16:33
Writing application            : mkvmerge v19.0.0 ('Brave Captain') 64-bit
Writing library                : libebml v1.3.5 + libmatroska v1.4.8
IsTruncated                    : Yes

Video
ID                             : 1
Format                         : HEVC
Format/Info                    : High Efficiency Video Coding
Format profile                 : Main 10@L5@High
HDR format                     : SMPTE ST 2086, HDR10 compatible
Codec ID                       : V_MPEGH/ISO/HEVC
Duration                       : 2 h 17 min
Bit rate                       : 13.9 Mb/s
Width                          : 3 840 pixels
Height                         : 1 606 pixels
Display aspect ratio           : 2.40:1
Frame rate mode                : Constant
Frame rate                     : 23.976 (24000/1001) FPS
Color space                    : YUV
Chroma subsampling             : 4:2:0 (Type 2)
Bit depth                      : 10 bits
Bits/(Pixel*Frame)             : 0.094
Stream size                    : 13.4 GiB (93%)
Default                        : Yes
Forced                         : No
Color range                    : Limited
Color primaries                : BT.2020
Transfer characteristics       : PQ
Matrix coefficients            : BT.2020 non-constant
Mastering display color primar : BT.2020
Mastering display luminance    : min: 0.0050 cd/m2, max: 1000 cd/m2
Maximum Content Light Level    : 477 cd/m2
Maximum Frame-Average Light Le : 57 cd/m2

Audio
ID                             : 2
Format                         : E-AC-3 JOC
Format/Info                    : Enhanced AC-3 with Joint Object Coding
Commercial name                : Dolby Digital Plus with Dolby Atmos
Codec ID                       : A_EAC3
Duration                       : 2 h 17 min
Bit rate mode                  : Constant
Bit rate                       : 768 kb/s
Channel(s)                     : 6 channels
Channel layout                 : L R C LFE Ls Rs
Sampling rate                  : 48.0 kHz
Frame rate                     : 31.250 FPS (1536 SPF)
Compression mode               : Lossy
Stream size                    : 754 MiB (5%)
Title                          : English
Language                       : English
Service kind                   : Complete Main
Default                        : No
Forced                         : No
Complexity index               : 16
Number of dynamic objects      : 15
Bed channel count              : 1 channel
Bed channel configuration      : LFE

迅雷下载资源速度为零或资源敏感被和谐时,推荐使用qBittorrent等下载软件,有条件的推荐115更好的下载软件!

****此区域为收费内容****    需支付 9 金币后可查看立即购买

****此区域为收费内容****    需支付 9 金币后可查看立即购买

游客,如果您要查看本帖隐藏内容请回复

游客,如果您要查看本帖隐藏内容请回复



.

上一篇:圆梦巨人 / The BFG (2016) 4K高清版本下载
下一篇:亚当斯一家2 / The Addams Family 2 (2021) 4K高清版本下载
回复

使用道具 举报

2

主题

1304

帖子

3932

积分

4K家园VIP

Rank: 9Rank: 9Rank: 9

积分
3932
发表于 2021-11-22 21:15:50 | 显示全部楼层
LZ敢整点更有创意的不?兄弟们等着围观捏~
回复 支持 反对

使用道具 举报

14

主题

1196

帖子

3578

积分

4K家园VIP

Rank: 9Rank: 9Rank: 9

积分
3578
发表于 2021-11-22 21:49:19 | 显示全部楼层
没看懂
回复 支持 反对

使用道具 举报

1

主题

1312

帖子

3782

积分

4K家园VIP

Rank: 9Rank: 9Rank: 9

积分
3782
发表于 2021-11-22 21:55:33 | 显示全部楼层
介是神马?!!
回复 支持 反对

使用道具 举报

0

主题

6718

帖子

1万

积分

4K家园VIP

Rank: 9Rank: 9Rank: 9

积分
15606
发表于 2021-11-22 22:06:56 | 显示全部楼层
太好啦&萬分感謝版主的無私發佈分享%
回复 支持 反对

使用道具 举报

6

主题

1177

帖子

3555

积分

4K家园VIP

Rank: 9Rank: 9Rank: 9

积分
3555
发表于 2021-11-22 22:25:22 | 显示全部楼层
楼下的接上
回复 支持 反对

使用道具 举报

1

主题

1531

帖子

4435

积分

4K家园VIP

Rank: 9Rank: 9Rank: 9

积分
4435
发表于 2021-11-23 01:19:53 | 显示全部楼层
锄禾日当午,发帖真辛苦。谁知坛中餐,帖帖皆辛苦!
回复 支持 反对

使用道具 举报

您需要登录后才可以回帖 登录 | 立即注册

本版积分规则

精彩图文
Archiver|手机版|TAG|Sitemap|新帖|专题|联系我们:邮箱: 4kjia.com@gmail.com   

4k家园   ©2019