[4K电影] 毒液2(附字幕)/ Venom: Let There Be Carnage (2021) 4K高清版本下载

  [复制链接]

1323

主题

1428

帖子

1万

积分

超级版主

Rank: 8Rank: 8

积分
11131
 楼主| 发表于 2021-11-23 14:00:58 | 显示全部楼层 |阅读模式
本帖最后由 最爱4K哟 于 2021-11-30 15:04 编辑

QQ图片20211123123415_副本.png

◎译  名 毒液2/毒魔:血战大屠杀(港)/毒液:放纵屠杀/毒液:屠杀开始/毒液2:屠杀将至/毒液2:屠杀开始/猛毒2:血蜘蛛(台)/Venom 2
◎片  名 Venom: Let There Be Carnage
◎年  代 2021
◎产  地 美国
◎类  别 动作/科幻/惊悚
◎语  言 英语
◎上映日期 2021(中国大陆)/2021-10-01(美国)/2021-10(英国)
◎IMDb评分  6.3/10 from 71808 users
◎IMDb链接  https://www.imdb.com/title/tt7097896/
◎豆瓣评分 5.1/10 from 37580 users
◎豆瓣链接 https://douban.com/subject/30382416/
◎片  长 97分钟
◎导  演 安迪·瑟金斯 Andy Serkis
◎编  剧 凯莉·马塞尔 Kelly Marcel / 汤姆·哈迪 Tom Hardy
◎主  演 汤姆·哈迪 Tom Hardy
       伍迪·哈里森 Woody Harrelson
       米歇尔·威廉姆斯 Michelle Williams
       娜奥米·哈里斯 Naomie Harris
       瑞德·斯科特 Reid Scott
       斯蒂芬·格拉汉姆 Stephen Graham
       汤姆·赫兰德 Tom Holland
       里斯·谢尔史密斯 Reece Shearsmith
       肖恩·德兰尼 Sean Delaney
       佩吉·陆 Peggy Lu
       劳伦斯·斯佩尔曼 Laurence Spellman
       杰克·班戴拉 Jack Bandeira
       斯克鲁比斯·皮普 Scroobius Pip
       阿姆·阿勒卡迪 Amrou Al-Kadhi
       斯图尔特·亚历山大 Stewart Alexander
       克里斯托弗戈德温 Christopher Godwin
       格雷戈·洛基特 Greg Lockett
       桑尼·阿什本·瑟金斯 Sonny Ashbourne Serkis
       雷切尔·汉德肖 Rachel Handshaw
       小田部阿基 Akie Kotabe
       埃里克·西格蒙德森 Eric Sigmundsson
       何塞‧帕尔马 Jose Palma
       Rosie Marcel Rosie Marcel
       艾略特·凯博尔 Elliot Cable
       威廉·W·巴伯 William W. Barbour
       埃尔文·费利西达 Erwin Felicilda
       露丝·霍洛克斯 Ruth Horrocks
       约翰·洛巴托 John Lobato
       迪索·拉莫斯 Diezel Ramos
       迈克尔·安德鲁·里德 Michael Andrew Reed
       里克·理查森 Rick Richardson
       安珀·西耶娜 Amber Sienna
       艾蒂安·维克 Etienne Vick
       杰茜·维宁 Jessie Vinning
       中川翔子 Shôko Nakagawa


◎简  介



  电影讲述了外星共生体“毒液”与宿主埃迪(汤姆·哈迪 饰)这对“最佳拍档”遇上致命反派共生体“卡内奇”(伍迪·哈里森 饰),超级英雄和邪恶反派的宿命之战即将开始。


◎获奖情况

  第7届豆瓣电影年度榜单  (2020)
  最值得期待的外语电影(提名)


  第6届豆瓣电影年度榜单  (2019)
  最值得期待的外语电影(提名)

General
Complete name                  : E:\4K@电影 \Venom.Let.There.Be.Carnage.2021.2160p.AMZN.WEB-DL.DDP5.1.HDR.HEVC-CMRG.mkv
Format                         : Matroska
Format version                 : Version 4
File size                      : 10.5 GiB
Duration                       : 1 h 37 min
Overall bit rate               : 15.4 Mb/s
Encoded date                   : UTC 2021-11-23 05:01:53
Writing application            : mkvmerge v61.0.0 ('So') 64-bit
Writing library                : libebml v1.4.2 + libmatroska v1.6.4
IsTruncated                    : Yes

Video
ID                             : 1
Format                         : HEVC
Format/Info                    : High Efficiency Video Coding
Format profile                 : Main 10@L5@Main
HDR format                     : SMPTE ST 2094 App 4, Version 1, HDR10+ Profile B compatible
Codec ID                       : V_MPEGH/ISO/HEVC
Duration                       : 1 h 37 min
Bit rate                       : 14.5 Mb/s
Width                          : 3 840 pixels
Height                         : 2 080 pixels
Display aspect ratio           : 1.85:1
Frame rate mode                : Constant
Frame rate                     : 23.976 (24000/1001) FPS
Color space                    : YUV
Chroma subsampling             : 4:2:0
Bit depth                      : 10 bits
Bits/(Pixel*Frame)             : 0.076
Stream size                    : 9.83 GiB (94%)
Default                        : Yes
Forced                         : No
Color range                    : Limited
Color primaries                : BT.2020
Transfer characteristics       : PQ
Matrix coefficients            : BT.2020 non-constant
Mastering display color primar : BT.2020
Mastering display luminance    : min: 0.0001 cd/m2, max: 1000 cd/m2
Maximum Content Light Level    : 5681 cd/m2
Maximum Frame-Average Light Le : 522 cd/m2

Audio
ID                             : 2
Format                         : E-AC-3
Format/Info                    : Enhanced AC-3
Commercial name                : Dolby Digital Plus
Codec ID                       : A_EAC3
Duration                       : 1 h 37 min
Bit rate mode                  : Constant
Bit rate                       : 640 kb/s
Channel(s)                     : 6 channels
Channel layout                 : L R C LFE Ls Rs
Sampling rate                  : 48.0 kHz
Frame rate                     : 31.250 FPS (1536 SPF)
Compression mode               : Lossy
Stream size                    : 445 MiB (4%)
Title                          : English
Language                       : English
Service kind                   : Complete Main
Default                        : No
Forced                         : No

Text #1
ID                             : 3
Format                         : UTF-8
Codec ID                       : S_TEXT/UTF8
Codec ID/Info                  : UTF-8 Plain Text
Title                          : English
Language                       : English
Default                        : No
Forced                         : No

Text #2
ID                             : 4
Format                         : UTF-8
Codec ID                       : S_TEXT/UTF8
Codec ID/Info                  : UTF-8 Plain Text
Title                          : English [SDH]
Language                       : English
Default                        : No
Forced                         : No

迅雷下载资源速度为零或资源敏感被和谐时,推荐使用qBittorrent等下载软件,有条件的推荐115更好的下载软件!

游客,如果您要查看本帖隐藏内容请回复

****此区域为收费内容****    需支付 9 金币后可查看立即购买

游客,如果您要查看本帖隐藏内容请回复

游客,如果您要查看本帖隐藏内容请回复

游客,如果您要查看本帖隐藏内容请回复

游客,如果您要查看本帖隐藏内容请回复

游客,如果您要查看本帖隐藏内容请回复
****此区域为收费内容****    需支付 9 金币后可查看立即购买



外挂中文字幕文件:
游客,如果您要查看本帖隐藏内容请回复




.


上一篇:《毒液2》11月23 日正式推出数字高清版,12月14发布4K蓝光!
下一篇:斯宾塞 / Spencer(2021) 4K高清版本下载
回复

使用道具 举报

1323

主题

1428

帖子

1万

积分

超级版主

Rank: 8Rank: 8

积分
11131
 楼主| 发表于 2021-11-23 15:17:49 | 显示全部楼层
Venom.Let.There.Be.Carnage.2021.2160p.AMZN.WEB-DL.DDP5.1.HDR.HEVC-CMRG.mkv_20211.jpg Venom.Let.There.Be.Carnage.2021.2160p.AMZN.WEB-DL.DDP5.1.HDR.HEVC-CMRG.mkv_20211.jpg Venom.Let.There.Be.Carnage.2021.2160p.AMZN.WEB-DL.DDP5.1.HDR.HEVC-CMRG.mkv_20211.jpg Venom.Let.There.Be.Carnage.2021.2160p.AMZN.WEB-DL.DDP5.1.HDR.HEVC-CMRG.mkv_20211.jpg Venom.Let.There.Be.Carnage.2021.2160p.AMZN.WEB-DL.DDP5.1.HDR.HEVC-CMRG.mkv_20211.jpg Venom.Let.There.Be.Carnage.2021.2160p.AMZN.WEB-DL.DDP5.1.HDR.HEVC-CMRG.mkv_20211.jpg
回复 支持 反对

使用道具 举报

2

主题

1380

帖子

4113

积分

4K家园VIP

Rank: 9Rank: 9Rank: 9

积分
4113
发表于 2021-11-23 14:01:05 | 显示全部楼层
4K电影下个试试
回复 支持 反对

使用道具 举报

0

主题

3

帖子

38

积分

新手上路

Rank: 1

积分
38
发表于 2021-11-23 15:21:20 | 显示全部楼层
回帖后跳转到最后一页
回复 支持 反对

使用道具 举报

0

主题

7239

帖子

1万

积分

4K家园VIP

Rank: 9Rank: 9Rank: 9

积分
16578
发表于 2021-11-23 16:19:57 | 显示全部楼层
太好啦&萬分感謝版主的無私發佈分享%
回复 支持 反对

使用道具 举报

0

主题

17

帖子

349

积分

新手上路

Rank: 1

积分
349
发表于 2021-11-23 16:22:57 | 显示全部楼层
看看 谢谢楼主分享
回复 支持 反对

使用道具 举报

51

主题

1483

帖子

4269

积分

4K家园VIP

Rank: 9Rank: 9Rank: 9

积分
4269
发表于 2021-11-23 19:09:23 | 显示全部楼层
啊啊啊啊啊啊啊啊啊啊啊
回复 支持 反对

使用道具 举报

0

主题

3

帖子

25

积分

新手上路

Rank: 1

积分
25
发表于 2021-11-23 19:21:29 | 显示全部楼层
1111111
回复

使用道具 举报

3

主题

1588

帖子

4404

积分

4K家园VIP

Rank: 9Rank: 9Rank: 9

积分
4404
发表于 2021-11-23 19:48:18 | 显示全部楼层
你们要是有4K资源记得分享,别小气
回复 支持 反对

使用道具 举报

0

主题

4

帖子

15

积分

新手上路

Rank: 1

积分
15
发表于 2021-11-23 19:49:45 | 显示全部楼层

回帖后跳转到最后一页
回复 支持 反对

使用道具 举报

您需要登录后才可以回帖 登录 | 立即注册

本版积分规则

精彩图文
Archiver|手机版|TAG|Sitemap|新帖|专题|联系我们:邮箱: 4kjia.com@gmail.com   

4k家园   ©2019