[4K电影] 斯宾塞 / Spencer(2021) 4K高清版本下载

[复制链接]

1134

主题

1211

帖子

9838

积分

超级版主

Rank: 8Rank: 8

积分
9838
 楼主| 发表于 2021-11-23 14:27:35 | 显示全部楼层 |阅读模式
本帖最后由 最爱4K哟 于 2021-11-23 15:33 编辑

QQ图片20211123142630_副本.png

◎译  名 斯宾塞 / 斯潘塞 / 黛妃(台) / 史宾沙(港) / 史宾赛(台)
◎片  名 Spencer
◎年  代 2021
◎产  地 英国 / 德国 / 智利
◎类  别 剧情 / 历史
◎语  言 英语
◎上映日期 2021-09-03(威尼斯电影节) / 2021-11-05(美国)
◎IMDb评分  7.2/10 from 8712 users
◎IMDb链接  https://www.imdb.com/title/tt12536294/
◎豆瓣评分 7.2/10 from 1025users
◎豆瓣链接 https://movie.douban.com/subject/35101435/
◎片  长 111分钟
◎导  演 帕布罗·拉雷恩
◎编  剧 斯蒂文·奈特
◎主  演 克里斯汀·斯图尔特
                   蒂莫西·斯波
                   杰克·法辛
                   西恩·哈里斯
                   莎莉·霍金斯
                   杰克·尼伦
                   弗雷迪·斯普里
                   斯特拉·古奈特
                   理查德·塞梅尔
                   伊丽莎白·贝林顿
                   艾米·曼森
                   詹姆斯·哈克尼斯
                   劳拉·本森
                   约翰·基奥
                   米迦勒·埃普
                   Ian Ashpitel
                   Wendy Patterson
                   Lore Stefanek



◎简  介


       讲述1990年代早期关键性的一个周末,戴安娜下了决心:她跟查尔斯王子的婚姻不会有好结果,必须背离那条“皇后预备役”的道路。影片故事发生在3天内,圣诞假日期间的桑德灵汉姆庄园。
General
Complete name                  : E:\4K@电影\Spencer.2021.2160p.WEB-DL.DD5.1.HDR.HEVC-EVO.mkv
Format                         : Matroska
Format version                 : Version 4
File size                      : 19.7 GiB
Duration                       : 1 h 56 min
Overall bit rate               : 24.1 Mb/s
Encoded date                   : UTC 2021-11-23 05:09:34
Writing application            : mkvmerge v19.0.0 ('Brave Captain') 64-bit
Writing library                : libebml v1.3.5 + libmatroska v1.4.8

Video
ID                             : 1
Format                         : HEVC
Format/Info                    : High Efficiency Video Coding
Format profile                 : Main 10@L5@High
HDR format                     : SMPTE ST 2086, HDR10 compatible
Codec ID                       : V_MPEGH/ISO/HEVC
Duration                       : 1 h 56 min
Bit rate                       : 23.3 Mb/s
Width                          : 3 600 pixels
Height                         : 2 156 pixels
Display aspect ratio           : 5:3
Frame rate mode                : Constant
Frame rate                     : 23.976 (24000/1001) FPS
Color space                    : YUV
Chroma subsampling             : 4:2:0 (Type 2)
Bit depth                      : 10 bits
Bits/(Pixel*Frame)             : 0.125
Stream size                    : 19.0 GiB (96%)
Default                        : Yes
Forced                         : No
Color range                    : Limited
Color primaries                : BT.2020
Transfer characteristics       : PQ
Matrix coefficients            : BT.2020 non-constant
Mastering display color primar : Display P3
Mastering display luminance    : min: 0.0050 cd/m2, max: 1000 cd/m2
Maximum Content Light Level    : 187 cd/m2
Maximum Frame-Average Light Le : 72 cd/m2

Audio
ID                             : 2
Format                         : AC-3
Format/Info                    : Audio Coding 3
Commercial name                : Dolby Digital
Codec ID                       : A_AC3
Duration                       : 1 h 56 min
Bit rate mode                  : Constant
Bit rate                       : 384 kb/s
Channel(s)                     : 6 channels
Channel layout                 : L R C LFE Ls Rs
Sampling rate                  : 48.0 kHz
Frame rate                     : 31.250 FPS (1536 SPF)
Compression mode               : Lossy
Stream size                    : 321 MiB (2%)
Title                          : English
Language                       : English
Service kind                   : Complete Main
Default                        : No
Forced                         : No

迅雷下载资源速度为零或资源敏感被和谐时,推荐使用qBittorrent等下载软件,有条件的推荐115更好的下载软件!

****此区域为收费内容****    需支付 9 金币后可查看立即购买

游客,如果您要查看本帖隐藏内容请回复
游客,如果您要查看本帖隐藏内容请回复





.


上一篇:毒液2(附字幕)/ Venom: Let There Be Carnage (2021) 4K高清版本下载
下一篇:黑色星期五 / Black Friday (2021) 4K高清版本下载
回复

使用道具 举报

11

主题

1217

帖子

3633

积分

4K家园VIP

Rank: 9Rank: 9Rank: 9

积分
3633
发表于 2021-11-23 14:27:41 | 显示全部楼层
支持一下楼主发表的内容
回复 支持 反对

使用道具 举报

0

主题

6718

帖子

1万

积分

4K家园VIP

Rank: 9Rank: 9Rank: 9

积分
15606
发表于 2021-11-23 16:19:35 | 显示全部楼层
太好啦&萬分感謝版主的無私發佈分享%
回复 支持 反对

使用道具 举报

2

主题

1310

帖子

3750

积分

4K家园VIP

Rank: 9Rank: 9Rank: 9

积分
3750
发表于 2021-11-24 02:05:56 | 显示全部楼层
前排顶起
回复 支持 反对

使用道具 举报

0

主题

1314

帖子

3954

积分

4K家园VIP

Rank: 9Rank: 9Rank: 9

积分
3954
发表于 2021-11-24 21:20:29 | 显示全部楼层
好帖必须得顶起
回复 支持 反对

使用道具 举报

1

主题

1689

帖子

4675

积分

4K家园VIP

Rank: 9Rank: 9Rank: 9

积分
4675
发表于 2021-11-30 08:16:32 | 显示全部楼层
感谢推荐,确实不错
回复 支持 反对

使用道具 举报

0

主题

1294

帖子

3906

积分

4K家园VIP

Rank: 9Rank: 9Rank: 9

积分
3906
发表于 2021-11-30 23:38:28 | 显示全部楼层
好像还可以
回复 支持 反对

使用道具 举报

您需要登录后才可以回帖 登录 | 立即注册

本版积分规则

精彩图文
Archiver|手机版|TAG|Sitemap|新帖|专题|联系我们:邮箱: 4kjia.com@gmail.com   

4k家园   ©2019