[4K电影] 世纪的婚礼 / The Wedding of the Century (2021) 4K高清版本下载

[复制链接]

1094

主题

1167

帖子

9581

积分

超级版主

Rank: 8Rank: 8

积分
9581
 楼主| 发表于 7 天前 | 显示全部楼层 |阅读模式
p2730204745_副本.jpg

◎译  名 世纪的婚礼
◎片  名 The Wedding of the Century
◎年  代 2020
◎产  地 英国
◎类  别 纪录片
◎语  言 英语
◎上映日期 2021-07-15(英国)
◎IMDb评分  7.4/10 from 13 users
◎IMDb链接  https://www.imdb.com/title/tt15079062/
◎豆瓣评分 0/10 from 0 users
◎豆瓣链接 https://movie.douban.com/subject/35661793/
◎片  长 75分钟
◎导  演 约翰·奥斯本


◎简  介

  这部长篇记录片以前所未有的方式重塑了历史上最具标志性的一天,完美还原了查尔斯王子和戴安娜·斯宾塞夫人婚礼的原版电影,现在以4k分辨率呈现。

General
Complete name                  : E:\4K@电影\The.Wedding.of.the.Century.2021.2160p.AMZN.WEB-DL.DDP5.1.HDR.HEVC-SiGLA.mkv
Format                         : Matroska
Format version                 : Version 4
File size                      : 7.91 GiB
Duration                       : 1 h 13 min
Overall bit rate               : 15.4 Mb/s
Writing application            : mkvmerge v63.0.0 ('Everything') 64-bit
Writing library                : libebml v1.4.2 + libmatroska v1.6.4
IsTruncated                    : Yes

Video
ID                             : 1
Format                         : HEVC
Format/Info                    : High Efficiency Video Coding
Format profile                 : Main 10@L5@Main
HDR format                     : SMPTE ST 2094 App 4, Version 1, HDR10+ Profile B compatible
Codec ID                       : V_MPEGH/ISO/HEVC
Duration                       : 1 h 13 min
Bit rate                       : 14.5 Mb/s
Width                          : 3 840 pixels
Height                         : 2 160 pixels
Display aspect ratio           : 16:9
Frame rate mode                : Constant
Frame rate                     : 25.000 FPS
Color space                    : YUV
Chroma subsampling             : 4:2:0
Bit depth                      : 10 bits
Bits/(Pixel*Frame)             : 0.070
Stream size                    : 7.42 GiB (94%)
Default                        : Yes
Forced                         : No
Color range                    : Limited
Color primaries                : BT.2020
Transfer characteristics       : PQ
Matrix coefficients            : BT.2020 non-constant
Mastering display color primar : BT.2020
Mastering display luminance    : min: 0.0050 cd/m2, max: 1000 cd/m2
Maximum Content Light Level    : 736 cd/m2
Maximum Frame-Average Light Le : 570 cd/m2

Audio
ID                             : 2
Format                         : E-AC-3
Format/Info                    : Enhanced AC-3
Commercial name                : Dolby Digital Plus
Codec ID                       : A_EAC3
Duration                       : 1 h 13 min
Bit rate mode                  : Constant
Bit rate                       : 640 kb/s
Channel(s)                     : 6 channels
Channel layout                 : L R C LFE Ls Rs
Sampling rate                  : 48.0 kHz
Frame rate                     : 31.250 FPS (1536 SPF)
Compression mode               : Lossy
Stream size                    : 335 MiB (4%)
Language                       : English
Service kind                   : Complete Main
Default                        : Yes
Forced                         : No

Text #1
ID                             : 3
Format                         : UTF-8
Codec ID                       : S_TEXT/UTF8
Codec ID/Info                  : UTF-8 Plain Text
Language                       : English
Default                        : No
Forced                         : No

Text #2
ID                             : 4
Format                         : UTF-8
Codec ID                       : S_TEXT/UTF8
Codec ID/Info                  : UTF-8 Plain Text
Title                          : SDH
Language                       : English
Default                        : No
Forced                         : No

迅雷下载资源速度为零或资源敏感被和谐时,推荐使用qBittorrent等下载软件,有条件的推荐115更好的下载软件!

游客,如果您要查看本帖隐藏内容请回复






上一篇:蒂米·菲列:错已铸成(内封简繁中字)(2021) 4K高清版本下载
下一篇:八比特圣诞 / 8 Bit Christmas (2021) 4K高清版本下载
回复

使用道具 举报

1094

主题

1167

帖子

9581

积分

超级版主

Rank: 8Rank: 8

积分
9581
 楼主| 发表于 7 天前 | 显示全部楼层
The.Wedding.of.the.Century.2021.2160p.AMZN.WEB-DL.DDP5.1.HDR.HEVC-SiGLA.mkv_2021.jpg The.Wedding.of.the.Century.2021.2160p.AMZN.WEB-DL.DDP5.1.HDR.HEVC-SiGLA.mkv_2021.jpg The.Wedding.of.the.Century.2021.2160p.AMZN.WEB-DL.DDP5.1.HDR.HEVC-SiGLA.mkv_2021.jpg The.Wedding.of.the.Century.2021.2160p.AMZN.WEB-DL.DDP5.1.HDR.HEVC-SiGLA.mkv_2021.jpg The.Wedding.of.the.Century.2021.2160p.AMZN.WEB-DL.DDP5.1.HDR.HEVC-SiGLA.mkv_2021.jpg The.Wedding.of.the.Century.2021.2160p.AMZN.WEB-DL.DDP5.1.HDR.HEVC-SiGLA.mkv_2021.jpg The.Wedding.of.the.Century.2021.2160p.AMZN.WEB-DL.DDP5.1.HDR.HEVC-SiGLA.mkv_2021.jpg The.Wedding.of.the.Century.2021.2160p.AMZN.WEB-DL.DDP5.1.HDR.HEVC-SiGLA.mkv_2021.jpg
回复 支持 反对

使用道具 举报

54

主题

1529

帖子

4375

积分

4K家园VIP

Rank: 9Rank: 9Rank: 9

积分
4375
发表于 7 天前 | 显示全部楼层
占位编辑
回复 支持 反对

使用道具 举报

56

主题

1416

帖子

4082

积分

4K家园VIP

Rank: 9Rank: 9Rank: 9

积分
4082
发表于 7 天前 | 显示全部楼层
4K家园不错,希望这种资源越多越好
回复 支持 反对

使用道具 举报

0

主题

6576

帖子

1万

积分

4K家园VIP

Rank: 9Rank: 9Rank: 9

积分
15360
发表于 7 天前 | 显示全部楼层
太好啦&萬分感謝版主的無私發佈分享%
回复 支持 反对

使用道具 举报

0

主题

84

帖子

458

积分

新手上路

Rank: 1

积分
458
发表于 6 天前 | 显示全部楼层

Test, just a test

Hello. And Bye.
回复 支持 反对

使用道具 举报

0

主题

84

帖子

458

积分

新手上路

Rank: 1

积分
458
发表于 6 天前 | 显示全部楼层

Test, just a test

StEwai ??? 2021-11-24 11:31
4K????,??????????

Hello. And Bye.
回复 支持 反对

使用道具 举报

0

主题

84

帖子

458

积分

新手上路

Rank: 1

积分
458
发表于 6 天前 | 显示全部楼层

Test, just a test

StEwai ??? 2021-11-24 11:31
4K????,??????????

Hello. And Bye.
回复 支持 反对

使用道具 举报

1

主题

1627

帖子

4497

积分

4K家园VIP

Rank: 9Rank: 9Rank: 9

积分
4497
发表于 6 天前 | 显示全部楼层
差评
回复 支持 反对

使用道具 举报

55

主题

1563

帖子

4505

积分

4K家园VIP

Rank: 9Rank: 9Rank: 9

积分
4505
发表于 4 天前 来自手机 | 显示全部楼层
广告位,,坐下看看
回复 支持 反对

使用道具 举报

您需要登录后才可以回帖 登录 | 立即注册

本版积分规则

精彩图文
Archiver|手机版|TAG|Sitemap|新帖|专题|联系我们:邮箱: 4kjia.com@gmail.com   

4k家园   ©2019