[4K电影] 八比特圣诞 / 8 Bit Christmas (2021) 4K高清版本下载

[复制链接]

1134

主题

1211

帖子

9838

积分

超级版主

Rank: 8Rank: 8

积分
9838
 楼主| 发表于 2021-11-24 18:36:20 | 显示全部楼层 |阅读模式
本帖最后由 最爱4K哟 于 2021-11-24 19:24 编辑

QQ图片20211124182122_副本.png

◎译  名 八比特圣诞 / 8-Bit Christmas
◎片  名 8 Bit Christmas
◎年  代 2021
◎产  地 美国
◎类  别 喜剧 / 家庭
◎语  言 英语
◎上映日期 2021-11-24(美国网络)
◎IMDb评分  0/10 from 0 users
◎IMDb链接  https://www.imdb.com/title/tt11540284/
◎豆瓣评分 0/10 from 0 users
◎豆瓣链接 https://movie.douban.com/subject/35384188/
◎片  长 97分钟
◎导  演 迈克尔·道斯
◎编  剧 凯文·雅库博斯基
◎主  演 尼尔·帕特里克·哈里斯
                   琼·黛安·拉斐尔
                   斯蒂夫·扎恩
                   赛勒斯·阿诺德
                   温斯洛·费格雷
                   桑蒂诺·巴纳德
                   雅各布·拉瓦尔
                   丹妮埃拉·伯尔冈
                   大卫·麦金尼斯
                   迈克尔·戴森
                   凯文·丹尼斯
                   威廉·普林
                  詹姆斯·麦克杜格尔
                  克里斯蒂·布鲁斯
                  玛雅·米萨尔耶维奇
                  索菲亚·里德·甘泽特
                  乔丹·奥拉迪梅吉



◎简  介

  新线影业开发的喜剧片[八比特圣诞](8-Bit Christmas,暂译)已经开拍。影片由尼尔·帕特里克·哈里斯、温斯洛·费格雷、琼·黛安·拉斐尔、斯蒂夫·扎恩主演,迈克尔·道斯([冰球坏小子])执导,凯文·雅库波斯基操刀剧本。
  该片根据凯文·雅库波斯基撰写的同名小说改编,故事以20世纪80年代末的芝加哥郊区为背景,讲述了10岁的杰克·多伊尔(费格雷饰)为了得到最好、最新的圣诞电子游戏开始艰难的挑战。哈里斯扮演成年后的杰克·多伊尔,同时也担任该片旁白。拉斐尔和扎恩饰演杰克·多伊尔小时候的父母凯西和约翰

General
Complete name                  : E:\4K@电影\8-Bit.Christmas.2021.HDR.2160p.WEB.h265-RUMOUR.mkv
Format                         : Matroska
Format version                 : Version 4
File size                      : 12.8 GiB
Duration                       : 1 h 37 min
Overall bit rate               : 18.7 Mb/s
Encoded date                   : UTC 2021-11-24 08:06:56
Writing application            : mkvmerge v63.0.0 ('Everything') 64-bit
Writing library                : libebml v1.4.2 + libmatroska v1.6.4

Video
ID                             : 1
Format                         : HEVC
Format/Info                    : High Efficiency Video Coding
Format profile                 : Main 10@L5@Main
HDR format                     : SMPTE ST 2086, HDR10 compatible
Codec ID                       : V_MPEGH/ISO/HEVC
Duration                       : 1 h 37 min
Bit rate                       : 17.5 Mb/s
Width                          : 3 840 pixels
Height                         : 2 160 pixels
Display aspect ratio           : 16:9
Frame rate mode                : Constant
Frame rate                     : 23.976 (24000/1001) FPS
Color space                    : YUV
Chroma subsampling             : 4:2:0
Bit depth                      : 10 bits
Bits/(Pixel*Frame)             : 0.088
Stream size                    : 12.0 GiB (94%)
Writing library                : x265 3.4hy:[Linux][GCC 7.5.0][64 bit] 10bit
Encoding settings              : cpuid=1111039 / frame-threads=1 / wpp / no-pmode / no-pme / no-psnr / no-ssim / log-level=2 / input-csp=1 / input-res=3840x2160 / interlace=0 / total-frames=0 / level-idc=0 / high-tier=1 / uhd-bd=0 / ref=4 / no-allow-non-conformance / repeat-headers / annexb / no-aud / no-hrd / info / hash=0 / no-temporal-layers / no-open-gop / min-keyint=96 / keyint=96 / gop-lookahead=0 / bframes=3 / b-adapt=2 / b-pyramid / bframe-bias=0 / rc-lookahead=25 / lookahead-slices=4 / scenecut=40 / hist-scenecut=0 / radl=0 / no-splice / no-intra-refresh / ctu=64 / min-cu-size=8 / rect / no-amp / max-tu-size=32 / tu-inter-depth=1 / tu-intra-depth=1 / limit-tu=0 / rdoq-level=2 / dynamic-rd=0.00 / no-ssim-rd / signhide / no-tskip / nr-intra=0 / nr-inter=0 / no-constrained-intra / strong-intra-smoothing / max-merge=3 / limit-refs=3 / limit-modes / me=3 / subme=3 / merange=57 / temporal-mvp / no-frame-dup / no-hme / weightp / no-weightb / no-analyze-src-pics / deblock=0:0 / sao / no-sao-non-deblock / rd=4 / selective-sao=4 / no-early-skip / rskip / no-fast-intra / no-tskip-fast / no-cu-lossless / no-b-intra / no-splitrd-skip / rdpenalty=0 / psy-rd=2.00 / psy-rdoq=1.00 / no-rd-refine / no-lossless / cbqpoffs=0 / crqpoffs=0 / rc=abr / bitrate=18000 / qcomp=0.60 / qpstep=4 / stats-write=0 / stats-read=2 / cplxblur=20.0 / qblur=0.5 / vbv-maxrate=24500 / vbv-bufsize=24500 / vbv-init=0.6 / vbv-end=0.6 / vbv-end-fr-adj=0.0 / ipratio=1.40 / pbratio=1.30 / aq-mode=2 / aq-strength=1.00 / cutree / zone-count=0 / no-strict-cbr / qg-size=32 / no-rc-grain / qpmax=69 / qpmin=0 / no-const-vbv / sar=0 / overscan=0 / videoformat=5 / range=0 / colorprim=9 / transfer=16 / colormatrix=9 / chromaloc=0 / display-window=0 / master-display=G(13250,34500)B(7500,3000)R(34000,16000)WP(15635,16450)L(10000000,1) / cll=215,106 / min-luma=0 / max-luma=1023 / log2-max-poc-lsb=8 / vui-timing-info / vui-hrd-info / no-concatenation / slices=1 / no-opt-qp-pps / no-opt-ref-list-length-pps / no-multi-pass-opt-rps / scenecut-bias=0.05 / hist-threshold=0.01 / no-opt-cu-delta-qp / no-aq-motion / hdr10 / no-hdr10-opt / no-dhdr10-opt / no-idr-recovery-sei / analysis-reuse-level=0 / analysis-save-reuse-level=0 / analysis-load-reuse-level=0 / scale-factor=0 / refine-intra=0 / refine-inter=0 / refine-mv=1 / refine-ctu-distortion=0 / no-limit-sao / ctu-info=0 / no-lowpass-dct / refine-analysis-type=0 / copy-pic=1 / max-ausize-factor=1.0 / no-dynamic-refine / no-single-sei / no-hevc-aq / no-svt / no-field / qp-adaptation-range=1.00 / no-scenecut-aware-qpconformance-window-offsets / right=0 / bottom=0 / decoder-max-rate=0
Language                       : English
Default                        : Yes
Forced                         : No
Color range                    : Limited
Color primaries                : BT.2020
Transfer characteristics       : PQ
Matrix coefficients            : BT.2020 non-constant
Mastering display color primar : Display P3
Mastering display luminance    : min: 0.0001 cd/m2, max: 1000 cd/m2
Maximum Content Light Level    : 215 cd/m2
Maximum Frame-Average Light Le : 106 cd/m2

Audio
ID                             : 2
Format                         : E-AC-3 JOC
Format/Info                    : Enhanced AC-3 with Joint Object Coding
Commercial name                : Dolby Digital Plus with Dolby Atmos
Codec ID                       : A_EAC3
Duration                       : 1 h 37 min
Bit rate mode                  : Constant
Bit rate                       : 768 kb/s
Channel(s)                     : 6 channels
Channel layout                 : L R C LFE Ls Rs
Sampling rate                  : 48.0 kHz
Frame rate                     : 31.250 FPS (1536 SPF)
Compression mode               : Lossy
Stream size                    : 537 MiB (4%)
Language                       : English
Service kind                   : Complete Main
Default                        : Yes
Forced                         : No
Complexity index               : 16
Number of dynamic objects      : 15
Bed channel count              : 1 channel
Bed channel configuration      : LFE

Text #1
ID                             : 3
Format                         : UTF-8
Codec ID                       : S_TEXT/UTF8
Codec ID/Info                  : UTF-8 Plain Text
Title                          : Danish
Language                       : Danish
Default                        : No
Forced                         : No

Text #2
ID                             : 4
Format                         : UTF-8
Codec ID                       : S_TEXT/UTF8
Codec ID/Info                  : UTF-8 Plain Text
Title                          : English [CC]
Language                       : English
Default                        : No
Forced                         : No

Text #3
ID                             : 5
Format                         : UTF-8
Codec ID                       : S_TEXT/UTF8
Codec ID/Info                  : UTF-8 Plain Text
Title                          : European Spanish [CC]
Language                       : Spanish
Default                        : No
Forced                         : No

Text #4
ID                             : 6
Format                         : UTF-8
Codec ID                       : S_TEXT/UTF8
Codec ID/Info                  : UTF-8 Plain Text
Title                          : European Spanish
Language                       : Spanish
Default                        : No
Forced                         : No

Text #5
ID                             : 7
Format                         : UTF-8
Codec ID                       : S_TEXT/UTF8
Codec ID/Info                  : UTF-8 Plain Text
Title                          : European Spanish
Language                       : Spanish
Default                        : No
Forced                         : No

Text #6
ID                             : 8
Format                         : UTF-8
Codec ID                       : S_TEXT/UTF8
Codec ID/Info                  : UTF-8 Plain Text
Title                          : Finish
Language                       : Finnish
Default                        : No
Forced                         : No

Text #7
ID                             : 9
Format                         : UTF-8
Codec ID                       : S_TEXT/UTF8
Codec ID/Info                  : UTF-8 Plain Text
Title                          : Norwegian
Language                       : Norwegian
Default                        : No
Forced                         : No

Text #8
ID                             : 10
Format                         : UTF-8
Codec ID                       : S_TEXT/UTF8
Codec ID/Info                  : UTF-8 Plain Text
Title                          : Brazilian Portuguese
Language                       : Portuguese
Default                        : No
Forced                         : No

Text #9
ID                             : 11
Format                         : UTF-8
Codec ID                       : S_TEXT/UTF8
Codec ID/Info                  : UTF-8 Plain Text
Title                          : Swedish
Language                       : Swedish
Default                        : No
Forced                         : No

迅雷下载资源速度为零或资源敏感被和谐时,推荐使用qBittorrent等下载软件,有条件的推荐115更好的下载软件!

下载地址

游客,如果您要查看本帖隐藏内容请回复

游客,如果您要查看本帖隐藏内容请回复

游客,如果您要查看本帖隐藏内容请回复





.

上一篇:世纪的婚礼 / The Wedding of the Century (2021) 4K高清版本下载
下一篇:人类 / The Humans (2021) 4K高清版本下载
回复

使用道具 举报

59

主题

1516

帖子

4344

积分

4K家园VIP

Rank: 9Rank: 9Rank: 9

积分
4344
发表于 2021-11-24 18:36:24 来自手机 | 显示全部楼层
学习下
回复 支持 反对

使用道具 举报

0

主题

6718

帖子

1万

积分

4K家园VIP

Rank: 9Rank: 9Rank: 9

积分
15606
发表于 2021-11-24 19:00:30 | 显示全部楼层
太好啦&萬分感謝版主的無私發佈分享%
回复 支持 反对

使用道具 举报

0

主题

1275

帖子

3845

积分

4K家园VIP

Rank: 9Rank: 9Rank: 9

积分
3845
发表于 2021-11-24 19:30:48 来自手机 | 显示全部楼层
秀起来~
回复 支持 反对

使用道具 举报

5

主题

1452

帖子

4200

积分

4K家园VIP

Rank: 9Rank: 9Rank: 9

积分
4200
发表于 2021-11-24 20:05:29 | 显示全部楼层
为保住菊花,这个一定得回复!
回复 支持 反对

使用道具 举报

1

主题

1240

帖子

3738

积分

4K家园VIP

Rank: 9Rank: 9Rank: 9

积分
3738
发表于 2021-11-24 20:21:20 来自手机 | 显示全部楼层
是爷们的娘们的都帮顶!大力支持
回复 支持 反对

使用道具 举报

48

主题

1493

帖子

4281

积分

4K家园VIP

Rank: 9Rank: 9Rank: 9

积分
4281
发表于 2021-11-24 20:59:19 | 显示全部楼层
感谢楼主的分享,还是阔以滴
回复 支持 反对

使用道具 举报

您需要登录后才可以回帖 登录 | 立即注册

本版积分规则

精彩图文
Archiver|手机版|TAG|Sitemap|新帖|专题|联系我们:邮箱: 4kjia.com@gmail.com   

4k家园   ©2019