[4K电影] 人类 / The Humans (2021) 4K高清版本下载

[复制链接]

1130

主题

1203

帖子

9797

积分

超级版主

Rank: 8Rank: 8

积分
9797
 楼主| 发表于 2021-11-24 19:21:21 | 显示全部楼层 |阅读模式
QQ图片20211124191912_副本.png


◎译  名 人类
◎片  名 The Humans
◎年  代 2021
◎产  地 美国
◎类  别 剧情
◎语  言 英语
◎上映日期 2021-09-12(多伦多电影节) / 2021-11-24(美国)
◎IMDb评分  7.0/10 from 189 users
◎IMDb链接  https://www.imdb.com/title/tt10023286/
◎豆瓣评分 0/10 from 0 users
◎豆瓣链接 https://movie.douban.com/subject/34951045/
◎片  长 108分钟
◎导  演 斯蒂芬·卡勒姆 Stephen Karam
◎编  剧 斯蒂芬·卡勒姆 Stephen Karam
◎主  演 比妮·费尔德斯坦 Beanie Feldstein
      史蒂文·元 Steven Yeun
      朱恩·斯奎布 June Squibb
      理查德·詹金斯 Richard Jenkins
      艾米·舒默 Amy Schumer
      杰妮·霍蒂谢尔 Jayne Houdyshell


◎简  介

      故事发生在曼哈顿市中心战前的一个复式建筑内,人类沿着布莱克一家欢聚一堂庆祝感恩节的夜晚进行。当夜幕降临在摇摇欲坠的大楼外时,神秘的事情开始在夜间发生,家庭紧张关系达到沸点。
General
Complete name                  : E:\4K@电影\The.Humans.2021.2160p.WEB-DL.DDP5.1.DV.H.265-NOSiViD.mp4
Format                         : MPEG-4
Format profile                 : Base Media / Version 2
Codec ID                       : mp42 (isom/mp42/dby1)
File size                      : 8.97 GiB
Duration                       : 1 h 46 min
Overall bit rate mode          : Variable
Overall bit rate               : 12.1 Mb/s
Encoded date                   : UTC 2021-11-24 05:54:39
Tagged date                    : UTC 2021-11-24 05:54:39
Writing application            : GPAC-1.1.0-DEV-rev1011-ge57ff5682-master
IsTruncated                    : Yes

Video
ID                             : 1
Format                         : HEVC
Format/Info                    : High Efficiency Video Coding
Format profile                 : Main 10@L5@High
HDR format                     : Dolby Vision, Version 1.0, dvhe.05.06, BL+RPU
Codec ID                       : dvhe
Codec ID/Info                  : High Efficiency Video Coding with Dolby Vision
Duration                       : 1 h 46 min
Bit rate                       : 24.0 Mb/s
Width                          : 3 840 pixels
Height                         : 2 160 pixels
Display aspect ratio           : 16:9
Frame rate mode                : Constant
Frame rate                     : 23.976 (24000/1001) FPS
Color space                    : YUV
Chroma subsampling             : 4:2:0
Bit depth                      : 10 bits
Bits/(Pixel*Frame)             : 0.121
Stream size                    : 17.8 GiB
Default                        : Yes
Alternate group                : 1
Encoded date                   : UTC 2021-11-24 05:49:40
Tagged date                    : UTC 2021-11-24 05:55:00
Codec configuration box        : hvcC+dvcC

Audio
ID                             : 2
Format                         : E-AC-3
Format/Info                    : Enhanced AC-3
Commercial name                : Dolby Digital Plus
Codec ID                       : ec-3
Duration                       : 1 h 46 min
Bit rate mode                  : Constant
Bit rate                       : 640 kb/s
Maximum bit rate               : 676 kb/s
Channel(s)                     : 6 channels
Channel layout                 : L R C LFE Ls Rs
Sampling rate                  : 48.0 kHz
Frame rate                     : 31.250 FPS (1536 SPF)
Compression mode               : Lossy
Stream size                    : 488 MiB (5%)
Language                       : English
Service kind                   : Complete Main
Default                        : Yes
Alternate group                : 1
Tagged date                    : UTC 2021-11-24 05:55:00

Text #1
ID                             : 4
Format                         : Timed Text
Codec ID                       : tx3g
Duration                       : 1 h 41 min
Bit rate mode                  : Variable
Bit rate                       : 83 b/s
Stream size                    : 62.0 KiB (0%)
Language                       : English
Forced                         : No
Encoded date                   : UTC 2021-11-24 05:54:59
Tagged date                    : UTC 2021-11-24 05:55:00

Text #2
ID                             : 5
Format                         : Timed Text
Codec ID                       : tx3g
Duration                       : 1 h 43 min
Bit rate mode                  : Variable
Bit rate                       : 98 b/s
Stream size                    : 73.9 KiB (0%)
Title                          : SDH
Language                       : English
Forced                         : No
Encoded date                   : UTC 2021-11-24 05:55:00
Tagged date                    : UTC 2021-11-24 05:55:00

Menu
01:46:25.000                   : Credits


迅雷下载资源速度为零或资源敏感被和谐时,推荐使用qBittorrent等下载软件,有条件的推荐115更好的下载软件!

下载地址

游客,如果您要查看本帖隐藏内容请回复

游客,如果您要查看本帖隐藏内容请回复

游客,如果您要查看本帖隐藏内容请回复

游客,如果您要查看本帖隐藏内容请回复




.




上一篇:八比特圣诞 / 8 Bit Christmas (2021) 4K高清版本下载
下一篇:圣诞节前的战斗(内嵌简繁中字) (2021) 4K高清版本下载
回复

使用道具 举报

1

主题

1558

帖子

4276

积分

4K家园VIP

Rank: 9Rank: 9Rank: 9

积分
4276
发表于 2021-11-24 19:21:28 | 显示全部楼层
我也顶起出售广告位
回复 支持 反对

使用道具 举报

0

主题

6676

帖子

1万

积分

4K家园VIP

Rank: 9Rank: 9Rank: 9

积分
15538
发表于 2021-11-24 19:30:47 | 显示全部楼层
太好啦&萬分感謝版主的無私發佈分享%
回复 支持 反对

使用道具 举报

0

主题

2

帖子

13

积分

新手上路

Rank: 1

积分
13
发表于 2021-11-25 20:49:34 | 显示全部楼层
巴适  等了好久了
回复 支持 反对

使用道具 举报

50

主题

1460

帖子

4242

积分

4K家园VIP

Rank: 9Rank: 9Rank: 9

积分
4242
发表于 2021-11-26 02:43:40 | 显示全部楼层
传说中的沙发???哇卡卡
回复 支持 反对

使用道具 举报

3

主题

1282

帖子

3864

积分

4K家园VIP

Rank: 9Rank: 9Rank: 9

积分
3864
发表于 2021-11-26 11:10:11 | 显示全部楼层
这个资源我记得是一套的,楼主还有没有
回复 支持 反对

使用道具 举报

6

主题

1385

帖子

4031

积分

中级会员

Rank: 4

积分
4031
发表于 2021-11-26 11:17:18 | 显示全部楼层
为保住菊花,这个一定得回复!
回复 支持 反对

使用道具 举报

50

主题

1432

帖子

4198

积分

4K家园VIP

Rank: 9Rank: 9Rank: 9

积分
4198
发表于 2021-11-26 18:13:42 来自手机 | 显示全部楼层
前排,哇咔咔
回复 支持 反对

使用道具 举报

0

主题

5

帖子

35

积分

新手上路

Rank: 1

积分
35
发表于 2021-11-29 22:52:28 | 显示全部楼层
感谢
回复

使用道具 举报

您需要登录后才可以回帖 登录 | 立即注册

本版积分规则

精彩图文
Archiver|手机版|TAG|Sitemap|新帖|专题|联系我们:邮箱: 4kjia.com@gmail.com   

4k家园   ©2019