披头士乐队:回归 (中字) (2021) /第一季全3集/ 4K高清版本下载

[复制链接]

66

主题

79

帖子

763

积分

版主

Rank: 7Rank: 7Rank: 7

积分
763
 楼主| 发表于 2021-11-28 18:15:53 | 显示全部楼层 |阅读模式

p2696212962_副本.png

◎译  名 披头士乐队:回归/披头四:狂热回归(港)
◎片  名 The Beatles: Get Back
◎年  代 2021
◎产  地 英国,新西兰,美国
◎类  别 纪录片 / 音乐
◎语  言 英语
◎上映日期 2021-11-25(美国网络)
◎IMDb评分  9.5/10 from 2745 users
◎IMDb链接  https://www.imdb.com/title/tt9735318/
◎豆瓣评分 9.2/10 from 452 users
◎豆瓣链接 https://movie.douban.com/subject/30466797/
◎导  演 彼得·杰克逊 Peter Jackson
◎主  演 约翰·列侬 John Lennon
       保罗·麦卡特尼 Paul McCartney
       林戈·斯塔尔 Ringo Starr
         乔治·哈里逊 George Harrison
       Mal Evans Mal Evans
       迈克尔·林赛-霍格 Michael Lindsay-Hogg
       乔治·马丁 George Martin
       Heather McCartney Heather McCartney
       琳达·麦卡特尼 Linda McCartney
       小野洋子 Yoko Ono
       比利·普林斯顿 Billy Preston
       莫琳·斯塔基 Maureen Starkey


◎简  介


  《指环王》导演彼得·杰克逊打造的披头士新纪录片《The Beatles:Get Back》要推出了。迪士尼前CEO、现董事会执行主席Bob Iger在年度股东大会上宣布:该片定档于9月4日北美上映。

  此前该片透露的信息是:记录的是披头士如何录制出经典名曲&专辑《Let It Be》。基于长达55小时的此前未曝光录像,包括披头士在录音室中制作的少见画面,拍摄时间为1969年1月2日-31日。1970年5月,《Let It Be》专辑发行,而当时乐队刚分崩离析。录像高潮为披头士那场著名演出——在伦敦萨维尔街苹果唱片公司总部旧址屋顶上的表演。

  这段录像本来是用来做一个特别节目的,现用在纪录片上。此外还有140小时的音频。

  《Let It Be》那段时间经常被看成乐队的动荡时期,而杰克逊说,他很高兴看完这些新得到的视频后,发现事实跟传说并不一样:在那些录像中,虽然也有抓马,但更多的是乐队成员们如何制作出经典音乐,那样的画面“不仅让人神往,而且很有趣,振奋人心,而且与他们的距离让人惊讶地非常亲密贴近。”PJ称很荣幸和开心能得到这样的视频,“制作这部电影会是完全的快乐”。

  他用了已经用在他此前执导的纪录片《他们已不再变老》中的“黑科技”复原技术来处理这些视频。

  该片获得了乐队成员保罗·麦卡特尼、林戈·斯塔尔和去世成员家属的合作,包括约翰·列侬的遗孀小野洋子、乔治·哈里森的遗孀Olivia Harrison,苹果唱片公司也参与制作。

General
Complete name                  : E:\4K@美剧\The.Beatles.Get.Back.S01E01.Part1.2160p.WEB-DL.DDP5.1.HEVC-TEPES.mkv
Format                         : Matroska
Format version                 : Version 4
File size                      : 22.2 GiB
Duration                       : 2 h 36 min
Overall bit rate               : 20.3 Mb/s
Writing application            : mkvmerge v59.0.0 ('Shining Star') 64-bit
Writing library                : libebml v1.4.2 + libmatroska v1.6.4
IsTruncated                    : Yes

Video
ID                             : 1
Format                         : HEVC
Format/Info                    : High Efficiency Video Coding
Format profile                 : Main@L5@High
Codec ID                       : V_MPEGH/ISO/HEVC
Duration                       : 2 h 36 min
Bit rate                       : 19.1 Mb/s
Width                          : 3 840 pixels
Height                         : 2 160 pixels
Display aspect ratio           : 16:9
Frame rate mode                : Constant
Frame rate                     : 24.000 FPS
Color space                    : YUV
Chroma subsampling             : 4:2:0
Bit depth                      : 8 bits
Bits/(Pixel*Frame)             : 0.096
Stream size                    : 20.9 GiB (94%)
Writing library                : x265 3.5:[Linux][GCC 9.3.0][64 bit] 8bit+10bit+12bit
Encoding settings              : cpuid=1111039 / frame-threads=1 / wpp / no-pmode / no-pme / no-psnr / no-ssim / log-level=2 / input-csp=1 / input-res=3840x2160 / interlace=0 / total-frames=0 / level-idc=50 / high-tier=1 / uhd-bd=0 / ref=2 / no-allow-non-conformance / repeat-headers / annexb / no-aud / no-hrd / info / hash=0 / no-temporal-layers / no-open-gop / min-keyint=48 / keyint=48 / gop-lookahead=0 / bframes=4 / b-adapt=1 / b-pyramid / bframe-bias=0 / rc-lookahead=48 / lookahead-slices=8 / scenecut=0 / hist-scenecut=0 / radl=0 / no-splice / no-intra-refresh / ctu=32 / min-cu-size=8 / no-rect / no-amp / max-tu-size=16 / tu-inter-depth=2 / tu-intra-depth=2 / limit-tu=0 / rdoq-level=1 / dynamic-rd=0.00 / no-ssim-rd / signhide / no-tskip / nr-intra=0 / nr-inter=0 / no-constrained-intra / no-strong-intra-smoothing / max-merge=3 / limit-refs=1 / no-limit-modes / me=1 / subme=2 / merange=44 / temporal-mvp / no-frame-dup / no-hme / weightp / no-weightb / no-analyze-src-pics / deblock=0:0 / no-sao / no-sao-non-deblock / rd=4 / selective-sao=0 / early-skip / rskip / no-fast-intra / no-tskip-fast / no-cu-lossless / b-intra / no-splitrd-skip / rdpenalty=1 / psy-rd=1.60 / psy-rdoq=5.00 / no-rd-refine / no-lossless / cbqpoffs=0 / crqpoffs=0 / rc=abr / bitrate=20000 / qcomp=0.75 / qpstep=4 / stats-write=0 / stats-read=0 / vbv-maxrate=24000 / vbv-bufsize=40000 / vbv-init=0.9 / ipratio=1.40 / pbratio=1.30 / aq-mode=3 / aq-strength=1.00 / no-cutree / zone-count=0 / no-strict-cbr / qg-size=32 / no-rc-grain / qpmax=69 / qpmin=0 / no-const-vbv / sar=1 / overscan=0 / videoformat=5 / range=0 / colorprim=1 / transfer=2 / colormatrix=1 / chromaloc=0 / display-window=0 / cll=0,0 / min-luma=0 / max-luma=255 / log2-max-poc-lsb=8 / vui-timing-info / vui-hrd-info / slices=1 / no-opt-qp-pps / no-opt-ref-list-length-pps / no-multi-pass-opt-rps / scenecut-bias=0.00 / hist-threshold=0.01 / no-opt-cu-delta-qp / no-aq-motion / no-hdr10 / no-hdr10-opt / no-dhdr10-opt / no-idr-recovery-sei / analysis-reuse-level=0 / analysis-save-reuse-level=0 / analysis-load-reuse-level=0 / scale-factor=0 / refine-intra=0 / refine-inter=0 / refine-mv=1 / refine-ctu-distortion=0 / no-limit-sao / ctu-info=0 / no-lowpass-dct / refine-analysis-type=0 / copy-pic=1 / max-ausize-factor=1.0 / no-dynamic-refine / no-single-sei / no-hevc-aq / no-svt / no-field / qp-adaptation-range=1.00 / no-scenecut-aware-qpconformance-window-offsets / right=0 / bottom=0
Default                        : Yes
Forced                         : No
Color range                    : Limited
Color primaries                : BT.709
Matrix coefficients            : BT.709

Audio
ID                             : 2
Format                         : E-AC-3 JOC
Format/Info                    : Enhanced AC-3 with Joint Object Coding
Commercial name                : Dolby Digital Plus with Dolby Atmos
Codec ID                       : A_EAC3
Duration                       : 2 h 36 min
Bit rate mode                  : Constant
Bit rate                       : 768 kb/s
Channel(s)                     : 6 channels
Channel layout                 : L R C LFE Ls Rs
Sampling rate                  : 48.0 kHz
Frame rate                     : 31.250 FPS (1536 SPF)
Compression mode               : Lossy
Delay relative to video        : 458 ms
Stream size                    : 861 MiB (4%)
Language                       : English
Service kind                   : Complete Main
Default                        : Yes
Forced                         : No
Complexity index               : 16
Number of dynamic objects      : 15
Bed channel count              : 1 channel
Bed channel configuration      : LFE

Text #1
ID                             : 3
Format                         : UTF-8
Codec ID                       : S_TEXT/UTF8
Codec ID/Info                  : UTF-8 Plain Text
Language                       : English
Default                        : No
Forced                         : No

Text #2
ID                             : 4
Format                         : UTF-8
Codec ID                       : S_TEXT/UTF8
Codec ID/Info                  : UTF-8 Plain Text
Title                          : SDH
Language                       : English
Default                        : No
Forced                         : No

Text #3
ID                             : 5
Format                         : UTF-8
Codec ID                       : S_TEXT/UTF8
Codec ID/Info                  : UTF-8 Plain Text
Language                       : Danish
Default                        : No
Forced                         : No

Text #4
ID                             : 6
Format                         : UTF-8
Codec ID                       : S_TEXT/UTF8
Codec ID/Info                  : UTF-8 Plain Text
Language                       : German
Default                        : No
Forced                         : No

Text #5
ID                             : 7
Format                         : UTF-8
Codec ID                       : S_TEXT/UTF8
Codec ID/Info                  : UTF-8 Plain Text
Title                          : Latin American
Language                       : Spanish
Default                        : No
Forced                         : No

Text #6
ID                             : 8
Format                         : UTF-8
Codec ID                       : S_TEXT/UTF8
Codec ID/Info                  : UTF-8 Plain Text
Language                       : Spanish
Default                        : No
Forced                         : No

Text #7
ID                             : 9
Format                         : UTF-8
Codec ID                       : S_TEXT/UTF8
Codec ID/Info                  : UTF-8 Plain Text
Language                       : Finnish
Default                        : No
Forced                         : No

Text #8
ID                             : 10
Format                         : UTF-8
Codec ID                       : S_TEXT/UTF8
Codec ID/Info                  : UTF-8 Plain Text
Language                       : French
Default                        : No
Forced                         : No

Text #9
ID                             : 11
Format                         : UTF-8
Codec ID                       : S_TEXT/UTF8
Codec ID/Info                  : UTF-8 Plain Text
Language                       : Italian
Default                        : No
Forced                         : No

Text #10
ID                             : 12
Format                         : UTF-8
Codec ID                       : S_TEXT/UTF8
Codec ID/Info                  : UTF-8 Plain Text
Language                       : Japanese
Default                        : No
Forced                         : No

Text #11
ID                             : 13
Format                         : UTF-8
Codec ID                       : S_TEXT/UTF8
Codec ID/Info                  : UTF-8 Plain Text
Language                       : Korean
Default                        : No
Forced                         : No

Text #12
ID                             : 14
Format                         : UTF-8
Codec ID                       : S_TEXT/UTF8
Codec ID/Info                  : UTF-8 Plain Text
Language                       : Dutch
Default                        : No
Forced                         : No

Text #13
ID                             : 15
Format                         : UTF-8
Codec ID                       : S_TEXT/UTF8
Codec ID/Info                  : UTF-8 Plain Text
Language                       : Norwegian
Default                        : No
Forced                         : No

Text #14
ID                             : 16
Format                         : UTF-8
Codec ID                       : S_TEXT/UTF8
Codec ID/Info                  : UTF-8 Plain Text
Language                       : Polish
Default                        : No
Forced                         : No

Text #15
ID                             : 17
Format                         : UTF-8
Codec ID                       : S_TEXT/UTF8
Codec ID/Info                  : UTF-8 Plain Text
Title                          : Brazilian
Language                       : Portuguese
Default                        : No
Forced                         : No

Text #16
ID                             : 18
Format                         : UTF-8
Codec ID                       : S_TEXT/UTF8
Codec ID/Info                  : UTF-8 Plain Text
Language                       : Portuguese
Default                        : No
Forced                         : No

Text #17
ID                             : 19
Format                         : UTF-8
Codec ID                       : S_TEXT/UTF8
Codec ID/Info                  : UTF-8 Plain Text
Language                       : Swedish
Default                        : No
Forced                         : No

Text #18
ID                             : 20
Format                         : UTF-8
Codec ID                       : S_TEXT/UTF8
Codec ID/Info                  : UTF-8 Plain Text
Language                       : 中文
Default                        : No
Forced                         : No

Text #19
ID                             : 21
Format                         : UTF-8
Codec ID                       : S_TEXT/UTF8
Codec ID/Info                  : UTF-8 Plain Text
Title                          : 中文繁体
Language                       : 中文
Default                        : No
Forced                         : No

Text #20
ID                             : 22
Format                         : UTF-8
Codec ID                       : S_TEXT/UTF8
Codec ID/Info                  : UTF-8 Plain Text
Title                          : 中文繁体
Language                       : 中文
Default                        : No
Forced                         : No


Menu
02:29:55.583                   : Credits



下载地址

游客,如果您要查看本帖隐藏内容请回复






.

上一篇:吸血鬼生活 (2019) / 第二季全10集 / 4K高清版本下载
下一篇:救命下课铃 (2021) /第一、二季全 / 4K高清版本下载
回复

使用道具 举报

5

主题

1601

帖子

4423

积分

中级会员

Rank: 4

积分
4423
发表于 2021-11-28 18:16:23 | 显示全部楼层
额.....这个可以有
回复 支持 反对

使用道具 举报

42

主题

1484

帖子

4264

积分

4K家园VIP

Rank: 9Rank: 9Rank: 9

积分
4264
发表于 2021-11-28 19:22:30 | 显示全部楼层
LZ敢整点更有创意的不?兄弟们等着围观捏~
回复 支持 反对

使用道具 举报

1

主题

1111

帖子

3351

积分

4K家园VIP

Rank: 9Rank: 9Rank: 9

积分
3351
发表于 2021-11-28 21:00:42 | 显示全部楼层
1v1飘过
回复 支持 反对

使用道具 举报

0

主题

7280

帖子

1万

积分

4K家园VIP

Rank: 9Rank: 9Rank: 9

积分
16651
发表于 2021-11-28 21:21:05 | 显示全部楼层
太好啦&萬分感謝版主的無私發佈分享%
回复 支持 反对

使用道具 举报

49

主题

1436

帖子

4114

积分

4K家园VIP

Rank: 9Rank: 9Rank: 9

积分
4114
发表于 2021-11-28 23:36:19 | 显示全部楼层
路过
回复 支持 反对

使用道具 举报

1

主题

1355

帖子

3911

积分

4K家园VIP

Rank: 9Rank: 9Rank: 9

积分
3911
发表于 2021-11-29 10:19:00 | 显示全部楼层
沙发???
回复 支持 反对

使用道具 举报

0

主题

27

帖子

201

积分

新手上路

Rank: 1

积分
201
发表于 2021-12-29 17:44:42 | 显示全部楼层
按分工是很好看稳如狗
回复 支持 反对

使用道具 举报

您需要登录后才可以回帖 登录 | 立即注册

本版积分规则

精彩图文
Archiver|手机版|TAG|Sitemap|新帖|专题|联系我们:邮箱: 4kjia.com@gmail.com   

4k家园   ©2019