[4K电影] 最后的决斗 / The Last Duel (2021) 4K高清版本下载

[复制链接]

1339

主题

1444

帖子

1万

积分

超级版主

Rank: 8Rank: 8

积分
11232
 楼主| 发表于 2021-11-30 14:12:00 | 显示全部楼层 |阅读模式
本帖最后由 最爱4K哟 于 2021-12-10 20:18 编辑

QQ图片20211130140542_副本.png

◎译  名 最后的决斗/最后的对决/最後絕鬥(港)/终极决斗
◎片  名 The Last Duel
◎年  代 2021
◎产  地 美国,英国
◎类  别 剧情 / 历史
◎语  言 英语
◎字  幕 官译简繁中英 / 中文字幕 / 英文字幕
◎上映日期 2021-09-10(威尼斯电影节) / 2021-10-15(美国)
◎IMDb评分  7.7/10 from 25132 users
◎IMDb链接  https://www.imdb.com/title/tt4244994/
◎豆瓣评分 8.6/10 from 1893 users
◎豆瓣链接 https://movie.douban.com/subject/34658290/
◎片  长 152分钟
◎导  演 雷德利·斯科特 Ridley Scott
◎编  剧 本·阿弗莱克 Ben Affleck / 马特·达蒙 Matt Damon / 妮可·哈罗芬瑟 Nicole Holofcener / 埃里克·贾格 Eric Jager
◎主  演 朱迪·科默 Jodie Comer
      马特·达蒙 Matt Damon
      本·阿弗莱克 Ben Affleck
      亚当·德赖弗 Adam Driver
      哈丽特·瓦尔特 Harriet Walter
      泽利科·伊万内克 Zeljko Ivanek
      埃里克斯·劳瑟 Alex Lawther
      内森奈尔·帕克 Nathaniel Parker
      克里夫·罗素 Clive Russell
      迈克尔·麦克埃尔哈顿 Michael McElhatton
      山姆·哈兹尔丁 Sam Hazeldine
      朱利安·弗思 Julian Firth
      勃斯科·霍根 Bosco Hogan
      卡伊姆赫·O'马莉 Caoimhe O'Malley
      伊恩·皮里 Ian Pirie
      柔伊·布鲁诺 Zoé Bruneau
      保罗·班迪 Paul Bandey
      布莱恩F.穆尔维 Brian F. Mulvey



◎简  介


  这场复仇围绕着达蒙、阿弗莱克饰演的一对最好的朋友展开。诺曼骑士Jean de Carrouges和乡绅Jacques Le Gris是最好的朋友。然而Jean战争归来后却指控Jacques强奸了他的妻子Margerite de Carrouges(科默饰)。没有人相信这个女子的遭遇,Jean向法国国王请愿,取消维护Jacques的伯爵Pierre d’Anencon的决定。而传递下来的国王决定是让这对好友决一死战。活着的人即为胜利者,这也将成为上帝的旨意。而如果Jean失败了,她的妻子将被焚烧,作为她“诬告”Jacques的惩罚。
General
Unique ID                      : 126298989908521974731251204729055946578 (0x5F044CF81FAFDE283AE69C5389932752)
Complete name                  : E:\4K@电影 4K@MV\The.Last.Duel.2021.2160p.WEB-DL.x265.10bit.HDR.DDP5.1.Atmos-CM\The.Last.Duel.2021.2160p.WEB-DL.DDP5.1.Atmos.HDR.HEVC-CM.mkv
Format                         : Matroska
Format version                 : Version 4
File size                      : 16.2 GiB
Duration                       : 2 h 32 min
Overall bit rate               : 15.2 Mb/s
Encoded date                   : UTC 2021-11-30 05:02:50
Writing application            : mkvmerge v62.0.0 ('Apollo') 64-bit
Writing library                : libebml v1.4.2 + libmatroska v1.6.4

Video
ID                             : 1
Format                         : HEVC
Format/Info                    : High Efficiency Video Coding
Format profile                 : Main 10@L5@High
HDR format                     : SMPTE ST 2086, HDR10 compatible
Codec ID                       : V_MPEGH/ISO/HEVC
Duration                       : 2 h 32 min
Bit rate                       : 14.1 Mb/s
Width                          : 3 840 pixels
Height                         : 1 608 pixels
Display aspect ratio           : 2.40:1
Frame rate mode                : Constant
Frame rate                     : 23.976 (24000/1001) FPS
Color space                    : YUV
Chroma subsampling             : 4:2:0 (Type 2)
Bit depth                      : 10 bits
Bits/(Pixel*Frame)             : 0.095
Stream size                    : 15.0 GiB (93%)
Default                        : Yes
Forced                         : No
Color range                    : Limited
Color primaries                : BT.2020
Transfer characteristics       : PQ
Matrix coefficients            : BT.2020 non-constant
Mastering display color primar : BT.2020
Mastering display luminance    : min: 0.0050 cd/m2, max: 1000 cd/m2
Maximum Content Light Level    : 1088 cd/m2
Maximum Frame-Average Light Le : 131 cd/m2

Audio
ID                             : 2
Format                         : E-AC-3 JOC
Format/Info                    : Enhanced AC-3 with Joint Object Coding
Commercial name                : Dolby Digital Plus with Dolby Atmos
Codec ID                       : A_EAC3
Duration                       : 2 h 32 min
Bit rate mode                  : Constant
Bit rate                       : 768 kb/s
Channel(s)                     : 6 channels
Channel layout                 : L R C LFE Ls Rs
Sampling rate                  : 48.0 kHz
Frame rate                     : 31.250 FPS (1536 SPF)
Compression mode               : Lossy
Stream size                    : 839 MiB (5%)
Title                          : English
Language                       : English
Service kind                   : Complete Main
Default                        : No
Forced                         : No
Complexity index               : 16
Number of dynamic objects      : 15
Bed channel count              : 1 channel
Bed channel configuration      : LFE

Text #1
ID                             : 3
Format                         : UTF-8
Codec ID                       : S_TEXT/UTF8
Codec ID/Info                  : UTF-8 Plain Text
Title                          : English [Forced]
Language                       : English
Default                        : No
Forced                         : Yes

Text #2
ID                             : 4
Format                         : UTF-8
Codec ID                       : S_TEXT/UTF8
Codec ID/Info                  : UTF-8 Plain Text
Title                          : English [SDH]
Language                       : English
Default                        : No
Forced                         : No

Text #3
ID                             : 5
Format                         : UTF-8
Codec ID                       : S_TEXT/UTF8
Codec ID/Info                  : UTF-8 Plain Text
Title                          : French Canadian
Language                       : French
Default                        : No
Forced                         : No

Text #4
ID                             : 6
Format                         : UTF-8
Codec ID                       : S_TEXT/UTF8
Codec ID/Info                  : UTF-8 Plain Text
Title                          : Spanish
Language                       : Spanish
Default                        : No
Forced                         : No
General
Complete name                  : H :\4K@电影\The.Last.Duel.2021.2160p.WEB-DL.DDP5.1.Atmos.HDR.HEVC-CM.mkv
Format                         : Matroska
Format version                 : Version 4
File size                      : 16.2 GiB
Duration                       : 2 h 32 min
Overall bit rate               : 15.2 Mb/s
Encoded date                   : UTC 2021-11-30 05:02:50
Writing application            : mkvmerge v62.0.0 ('Apollo') 64-bit
Writing library                : libebml v1.4.2 + libmatroska v1.6.4

Video
ID                             : 1
Format                         : HEVC
Format/Info                    : High Efficiency Video Coding
Format profile                 : Main 10@L5@High
HDR format                     : SMPTE ST 2086, HDR10 compatible
Codec ID                       : V_MPEGH/ISO/HEVC
Duration                       : 2 h 32 min
Bit rate                       : 14.1 Mb/s
Width                          : 3 840 pixels
Height                         : 1 608 pixels
Display aspect ratio           : 2.40:1
Frame rate mode                : Constant
Frame rate                     : 23.976 (24000/1001) FPS
Color space                    : YUV
Chroma subsampling             : 4:2:0 (Type 2)
Bit depth                      : 10 bits
Bits/(Pixel*Frame)             : 0.095
Stream size                    : 15.0 GiB (93%)
Default                        : Yes
Forced                         : No
Color range                    : Limited
Color primaries                : BT.2020
Transfer characteristics       : PQ
Matrix coefficients            : BT.2020 non-constant
Mastering display color primar : BT.2020
Mastering display luminance    : min: 0.0050 cd/m2, max: 1000 cd/m2
Maximum Content Light Level    : 1088 cd/m2
Maximum Frame-Average Light Le : 131 cd/m2

Audio
ID                             : 2
Format                         : E-AC-3 JOC
Format/Info                    : Enhanced AC-3 with Joint Object Coding
Commercial name                : Dolby Digital Plus with Dolby Atmos
Codec ID                       : A_EAC3
Duration                       : 2 h 32 min
Bit rate mode                  : Constant
Bit rate                       : 768 kb/s
Channel(s)                     : 6 channels
Channel layout                 : L R C LFE Ls Rs
Sampling rate                  : 48.0 kHz
Frame rate                     : 31.250 FPS (1536 SPF)
Compression mode               : Lossy
Stream size                    : 839 MiB (5%)
Title                          : English
Language                       : English
Service kind                   : Complete Main
Default                        : No
Forced                         : No
Complexity index               : 16
Number of dynamic objects      : 15
Bed channel count              : 1 channel
Bed channel configuration      : LFE

Text #1
ID                             : 3
Format                         : UTF-8
Codec ID                       : S_TEXT/UTF8
Codec ID/Info                  : UTF-8 Plain Text
Title                          : English [Forced]
Language                       : English
Default                        : No
Forced                         : Yes

Text #2
ID                             : 4
Format                         : UTF-8
Codec ID                       : S_TEXT/UTF8
Codec ID/Info                  : UTF-8 Plain Text
Title                          : English [SDH]
Language                       : English
Default                        : No
Forced                         : No

Text #3
ID                             : 5
Format                         : UTF-8
Codec ID                       : S_TEXT/UTF8
Codec ID/Info                  : UTF-8 Plain Text
Title                          : French Canadian
Language                       : French
Default                        : No
Forced                         : No

Text #4
ID                             : 6
Format                         : UTF-8
Codec ID                       : S_TEXT/UTF8
Codec ID/Info                  : UTF-8 Plain Text
Title                          : Spanish
Language                       : Spanish
Default                        : No
Forced                         : No

迅雷下载资源速度为零或资源敏感被和谐时,推荐使用qBittorrent等下载软件,有条件的推荐115更好的下载软件!

下载地址

游客,如果您要查看本帖隐藏内容请回复

游客,如果您要查看本帖隐藏内容请回复

游客,如果您要查看本帖隐藏内容请回复

游客,如果您要查看本帖隐藏内容请回复



.


上一篇:成为康斯塔(内封简繁中字) (2021) 4K高清版本下载
下一篇:血色蝗灾 / La nuée (2020) 4K高清版本下载
回复

使用道具 举报

0

主题

1259

帖子

3793

积分

4K家园VIP

Rank: 9Rank: 9Rank: 9

积分
3793
发表于 2021-11-30 14:12:05 | 显示全部楼层
占坑编辑ing
回复 支持 反对

使用道具 举报

3

主题

1307

帖子

3945

积分

4K家园VIP

Rank: 9Rank: 9Rank: 9

积分
3945
发表于 2021-11-30 15:09:44 | 显示全部楼层
围观 围观 沙发在哪里!!!
回复 支持 反对

使用道具 举报

1

主题

1582

帖子

4352

积分

4K家园VIP

Rank: 9Rank: 9Rank: 9

积分
4352
发表于 2021-11-30 15:15:08 | 显示全部楼层
你们要是有4K资源记得分享,别小气
回复 支持 反对

使用道具 举报

0

主题

2

帖子

9

积分

新手上路

Rank: 1

积分
9
发表于 2021-11-30 17:55:30 | 显示全部楼层
好资源
回复

使用道具 举报

0

主题

1

帖子

6

积分

新手上路

Rank: 1

积分
6
发表于 2021-11-30 19:05:08 | 显示全部楼层
很好的链接
回复 支持 反对

使用道具 举报

1

主题

14

帖子

527

积分

4K家园VIP

Rank: 9Rank: 9Rank: 9

积分
527
发表于 2021-11-30 19:21:55 | 显示全部楼层
有4K资源记得分享
回复 支持 反对

使用道具 举报

1

主题

1282

帖子

3730

积分

4K家园VIP

Rank: 9Rank: 9Rank: 9

积分
3730
发表于 2021-12-1 00:04:33 | 显示全部楼层
还有没有别的资源,多分享些
回复 支持 反对

使用道具 举报

1

主题

1349

帖子

3901

积分

4K家园VIP

Rank: 9Rank: 9Rank: 9

积分
3901
发表于 2021-12-1 06:57:02 | 显示全部楼层
是爷们的娘们的都帮顶!大力支持
回复 支持 反对

使用道具 举报

0

主题

89

帖子

5432

积分

高级会员

Rank: 3Rank: 3

积分
5432
发表于 2021-12-1 08:53:33 | 显示全部楼层
感谢大大的分享
回复 支持 反对

使用道具 举报

您需要登录后才可以回帖 登录 | 立即注册

本版积分规则

精彩图文
Archiver|手机版|TAG|Sitemap|新帖|专题|联系我们:邮箱: 4kjia.com@gmail.com   

4k家园   ©2019