英雄联盟:双城之战/Arcane (2021) /第一季全9集/4K高清版本下载

  [复制链接]

66

主题

79

帖子

763

积分

版主

Rank: 7Rank: 7Rank: 7

积分
763
 楼主| 发表于 2021-12-1 11:18:52 | 显示全部楼层 |阅读模式
本帖最后由 美剧小虾 于 2021-12-1 11:29 编辑

p2714077426_副本.jpg

◎译  名 英雄联盟:双城之战/奥术/英雄联盟动画剧集
◎片  名 Arcane
◎年  代 2021
◎产  地 美国
◎类  别 动作/科幻/动画
◎语  言 英语
◎上映日期 2021-11-06(美国)/2021-11-07(中国大陆)
◎IMDb评分  9.3/10 from 75984 users
◎IMDb链接  https://www.imdb.com/title/tt11126994
◎豆瓣评分 9.3/10 from 6590 users
◎豆瓣链接 https://douban.com/subject/34867871/
◎集  数 9
◎片  长 40分钟
◎主  演 海莉·斯坦菲尔德 Hailee Steinfeld
       艾拉·珀内尔 Ella Purnell
       梁佩诗 Katie Leung
       凯文·阿历詹卓 Kevin Alejandro
       哈里·劳埃德 Harry Lloyd
       杰森·斯皮萨克 Jason Spisak
       JB·布兰科 JB Blanc
       托克斯·奥拉贡多耶 Toks Olagundoye
       米娅·辛克莱·詹内斯 Mia Sinclair Jenness
       聂曦映 Xiying Nie
       歪歪 Fuzheng Zhang
       罗云熙 Yunxi Luo
       刘校妤 Xiaoyu Liu
       张杰 Jie Zhang
       万茜 Qian Wan
       巫蛊悠悠 Haojia Li
       刘琮 Cong Liu



◎简  介


  《英雄联盟:双城之战》是英雄联盟官方动画剧集,讲述的是在充满蒸汽朋克气息的乌托邦-皮尔特沃夫和由化学品驱动的地下城-祖安中,蔚和金克丝两姐妹,她们在一场激烈的冲突后发现两个人站在了彼此的对立面。她们从此分开,走上不同的道路,朝着不同的命运终点走去,但心中的羁绊又无时不刻地让姐妹二人想要破镜重圆。

General

Complete name                  : J:\4K@美剧 4K@MV\Arcane.S01E01.Welcome.to.the.Playground.2160p.H265-MrDiego.mkv
Format                         : Matroska
Format version                 : Version 4
File size                      : 7.23 GiB
Duration                       : 43 min 25 s
Overall bit rate               : 23.8 Mb/s
Movie name                     : Arcane.S01E01. By MrDiego
Encoded date                   : UTC 2021-11-30 19:04:27
Writing application            : mkvmerge v63.0.0 ('Everything') 64-bit
Writing library                : libebml v1.4.2 + libmatroska v1.6.4
Cover                          : Yes
Attachments                    : cover.jpg / cover_land.jpg / small_cover.jpg / small_cover_land.jpg

Video
ID                             : 1
Format                         : HEVC
Format/Info                    : High Efficiency Video Coding
Format profile                 : Main 10@L5@High
Codec ID                       : V_MPEGH/ISO/HEVC
Duration                       : 43 min 25 s
Bit rate                       : 19.8 Mb/s
Width                          : 3 840 pixels
Height                         : 2 160 pixels
Display aspect ratio           : 16:9
Frame rate mode                : Constant
Frame rate                     : 24.000 FPS
Color space                    : YUV
Chroma subsampling             : 4:2:0
Bit depth                      : 10 bits
Bits/(Pixel*Frame)             : 0.099
Stream size                    : 6.00 GiB (83%)
Title                          : Arcane S01E01 4kAI by Diego
Default                        : Yes
Forced                         : No

Audio #1
ID                             : 2
Format                         : E-AC-3
Format/Info                    : Enhanced AC-3
Commercial name                : Dolby Digital Plus
Codec ID                       : A_EAC3
Duration                       : 43 min 25 s
Bit rate mode                  : Constant
Bit rate                       : 640 kb/s
Channel(s)                     : 6 channels
Channel layout                 : L R C LFE Ls Rs
Sampling rate                  : 48.0 kHz
Frame rate                     : 31.250 FPS (1536 SPF)
Compression mode               : Lossy
Stream size                    : 199 MiB (3%)
Title                          : Iyuno-SDI Group
Language                       : Russian
Service kind                   : Complete Main
Default                        : Yes
Forced                         : No

Audio #2
ID                             : 3
Format                         : AC-3
Format/Info                    : Audio Coding 3
Commercial name                : Dolby Digital
Codec ID                       : A_AC3
Duration                       : 43 min 25 s
Bit rate mode                  : Constant
Bit rate                       : 640 kb/s
Channel(s)                     : 6 channels
Channel layout                 : L R C LFE Ls Rs
Sampling rate                  : 48.0 kHz
Frame rate                     : 31.250 FPS (1536 SPF)
Compression mode               : Lossy
Stream size                    : 199 MiB (3%)
Title                          : TVShows
Language                       : Russian
Service kind                   : Complete Main
Default                        : Yes
Forced                         : No

Audio #3
ID                             : 4
Format                         : AC-3
Format/Info                    : Audio Coding 3
Commercial name                : Dolby Digital
Codec ID                       : A_AC3
Duration                       : 43 min 25 s
Bit rate mode                  : Constant
Bit rate                       : 384 kb/s
Channel(s)                     : 2 channels
Channel layout                 : L R
Sampling rate                  : 48.0 kHz
Frame rate                     : 31.250 FPS (1536 SPF)
Compression mode               : Lossy
Stream size                    : 119 MiB (2%)
Title                          : LostFilm
Language                       : Russian
Service kind                   : Complete Main
Default                        : No
Forced                         : No

Audio #4
ID                             : 5
Format                         : AC-3
Format/Info                    : Audio Coding 3
Commercial name                : Dolby Digital
Codec ID                       : A_AC3
Duration                       : 43 min 25 s
Bit rate mode                  : Constant
Bit rate                       : 640 kb/s
Channel(s)                     : 6 channels
Channel layout                 : L R C LFE Ls Rs
Sampling rate                  : 48.0 kHz
Frame rate                     : 31.250 FPS (1536 SPF)
Compression mode               : Lossy
Stream size                    : 199 MiB (3%)
Title                          : HDRezka Studio (RUS)
Language                       : Russian
Service kind                   : Complete Main
Default                        : No
Forced                         : No

Audio #5
ID                             : 6
Format                         : AC-3
Format/Info                    : Audio Coding 3
Commercial name                : Dolby Digital
Codec ID                       : A_AC3
Duration                       : 43 min 25 s
Bit rate mode                  : Constant
Bit rate                       : 640 kb/s
Channel(s)                     : 6 channels
Channel layout                 : L R C LFE Ls Rs
Sampling rate                  : 48.0 kHz
Frame rate                     : 31.250 FPS (1536 SPF)
Compression mode               : Lossy
Stream size                    : 199 MiB (3%)
Title                          : HDRezka Studio (UKR)
Language                       : Ukrainian
Service kind                   : Complete Main
Default                        : No
Forced                         : No

Audio #6
ID                             : 7
Format                         : E-AC-3
Format/Info                    : Enhanced AC-3
Commercial name                : Dolby Digital Plus
Codec ID                       : A_EAC3
Duration                       : 43 min 25 s
Bit rate mode                  : Constant
Bit rate                       : 640 kb/s
Channel(s)                     : 6 channels
Channel layout                 : L R C LFE Ls Rs
Sampling rate                  : 48.0 kHz
Frame rate                     : 31.250 FPS (1536 SPF)
Compression mode               : Lossy
Stream size                    : 199 MiB (3%)
Title                          : Original
Language                       : English
Service kind                   : Complete Main
Default                        : No
Forced                         : No

Text #1
ID                             : 8
Format                         : UTF-8
Codec ID                       : S_TEXT/UTF8
Codec ID/Info                  : UTF-8 Plain Text
Title                          : Русский (Forced)
Language                       : Russian
Default                        : Yes
Forced                         : Yes

Text #2
ID                             : 9
Format                         : UTF-8
Codec ID                       : S_TEXT/UTF8
Codec ID/Info                  : UTF-8 Plain Text
Title                          : Русский
Language                       : Russian
Default                        : No
Forced                         : No

Text #3
ID                             : 10
Format                         : UTF-8
Codec ID                       : S_TEXT/UTF8
Codec ID/Info                  : UTF-8 Plain Text
Title                          : Українська
Language                       : Ukrainian
Default                        : No
Forced                         : No

Text #4
ID                             : 11
Format                         : UTF-8
Codec ID                       : S_TEXT/UTF8
Codec ID/Info                  : UTF-8 Plain Text
Title                          : English
Language                       : English
Default                        : No
Forced                         : No

Text #5
ID                             : 12
Format                         : UTF-8
Codec ID                       : S_TEXT/UTF8
Codec ID/Info                  : UTF-8 Plain Text
Title                          : English (SDH)
Language                       : English
Default                        : No
Forced                         : No

下载地址:

PS:该版本为俄版资源,需要其他语音请在音轨转换即可
游客,如果您要查看本帖隐藏内容请回复


外挂中文字幕文件: 雄联盟:双城之战 第1季Arcane.S01.2021.1080p.NF.WEB-DL.DDP5.1.x264-TEPES.CHS&.zip (171.48 KB)

上一篇:救命下课铃 (2021) /第一、二季全 / 4K高清版本下载
下一篇:邻家心理医生 (内嵌中字) (2021) /第一季全8集/4K高清版本下载
回复

使用道具 举报

66

主题

79

帖子

763

积分

版主

Rank: 7Rank: 7Rank: 7

积分
763
 楼主| 发表于 2021-12-1 11:24:45 | 显示全部楼层
QQ图片20211201111720_副本.png Arcane.S01E01.Welcome.to.the.Playground.2160p.H265-MrDiego.mkv_20211201_111727.267.jpg Arcane.S01E01.Welcome.to.the.Playground.2160p.H265-MrDiego.mkv_20211201_111734.642.jpg Arcane.S01E01.Welcome.to.the.Playground.2160p.H265-MrDiego.mkv_20211201_111741.595.jpg Arcane.S01E01.Welcome.to.the.Playground.2160p.H265-MrDiego.mkv_20211201_111750.147.jpg Arcane.S01E01.Welcome.to.the.Playground.2160p.H265-MrDiego.mkv_20211201_111755.203.jpg Arcane.S01E01.Welcome.to.the.Playground.2160p.H265-MrDiego.mkv_20211201_111808.195.jpg
回复 支持 反对

使用道具 举报

0

主题

1300

帖子

3926

积分

4K家园VIP

Rank: 9Rank: 9Rank: 9

积分
3926
发表于 2021-12-1 11:19:56 来自手机 | 显示全部楼层
看帖要回,回帖才健康,在踩踩,楼主辛苦了!
回复 支持 反对

使用道具 举报

0

主题

7

帖子

282

积分

4K家园VIP

Rank: 9Rank: 9Rank: 9

积分
282
发表于 2021-12-1 14:36:35 | 显示全部楼层
顶一顶 这样都没沙发 可恶
回复 支持 反对

使用道具 举报

1

主题

14

帖子

515

积分

4K家园VIP

Rank: 9Rank: 9Rank: 9

积分
515
发表于 2021-12-1 19:47:01 | 显示全部楼层
每天关注
回复

使用道具 举报

0

主题

1

帖子

6

积分

新手上路

Rank: 1

积分
6
发表于 2021-12-2 00:16:59 | 显示全部楼层
感谢分享
回复

使用道具 举报

0

主题

4

帖子

56

积分

4K家园VIP

Rank: 9Rank: 9Rank: 9

积分
56
发表于 2021-12-2 00:42:46 | 显示全部楼层
感谢分享
回复

使用道具 举报

0

主题

1331

帖子

4005

积分

4K家园VIP

Rank: 9Rank: 9Rank: 9

积分
4005
发表于 2021-12-2 06:01:42 | 显示全部楼层
前排支持下了哦~
回复 支持 反对

使用道具 举报

0

主题

1

帖子

6

积分

新手上路

Rank: 1

积分
6
发表于 2021-12-2 14:55:20 | 显示全部楼层
非常好的资源,感谢了
回复 支持 反对

使用道具 举报

2

主题

1441

帖子

4127

积分

4K家园VIP

Rank: 9Rank: 9Rank: 9

积分
4127
发表于 2021-12-2 23:22:49 来自手机 | 显示全部楼层
好,很好,非常好!
回复 支持 反对

使用道具 举报

您需要登录后才可以回帖 登录 | 立即注册

本版积分规则

精彩图文
Archiver|手机版|TAG|Sitemap|新帖|专题|联系我们:邮箱: 4kjia.com@gmail.com   

4k家园   ©2019