[4K电影] 贝尔法斯特 / Belfast (2021) 4K高清版本下载

[复制链接]

1339

主题

1444

帖子

1万

积分

超级版主

Rank: 8Rank: 8

积分
11232
 楼主| 发表于 2021-12-2 20:57:24 | 显示全部楼层 |阅读模式
QQ图片20211202204631_副本.png

◎译  名 贝尔法斯特
◎片  名 Belfast
◎年  代 2021
◎产  地 英国
◎类  别 剧情
◎语  言 英语
◎上映日期 2021-09-02(特柳赖德电影节) / 2021-11-12(美国) / 2022-01-21(英国)
◎IMDb评分  7.8/10 from 3398 users
◎IMDb链接  https://www.imdb.com/title/tt12789558/
◎豆瓣评分 7.4/10 from 203 users
◎豆瓣链接 https://movie.douban.com/subject/35299584/
◎片  长 97分钟
◎导  演 肯尼思·布拉纳
◎编  剧 肯尼思·布拉纳
◎演  员 裘德·希尔
                   刘易斯·麦卡斯基
                   凯特瑞娜·巴尔夫
                  詹米·多南
                  朱迪·丹奇
                  塞伦·希德
                  乔西·沃克
                  弗雷亚·耶茨
                  尼萨·埃里克森
                  查理·巴纳德
                  弗兰基·黑斯廷斯
                  玛丽·泰尔斯
                  麦卡锡草兰
                  伊恩·邓内特

                  迈克尔·马罗尼
                  罗拉·麦克唐纳
                  艾莉·康德伦
                  图尔洛夫·科维里
                  杰拉德·霍兰
                  科林·摩根
                  康纳·麦克尼尔
                  约翰·塞森斯
                  马克·哈德菲尔德
                  克莱尔·阿什顿
                  萨克·霍兰



◎简  介

       凯特瑞娜·巴尔夫、朱迪·丹奇、杰米·多南、塞伦·希德和新人裘德·希尔主演,讲述1960年代末动荡时期,一个在贝尔法斯特长大的男孩的故事。多南和巴尔夫饰演一对富有魅力的工薪阶层夫妇,他们陷入了混乱局势中,丹奇和希德饰演诙谐活泼的祖父母。

General
Complete name                  : H:\4K@电影\Belfast.2021.2160p.AMZN.WEB-DL.x265.10bit.HDR10Plus.DDP5.1.Atmos-NOGRP.mkv
Format                         : Matroska
Format version                 : Version 4
File size                      : 10.4 GiB
Duration                       : 1 h 38 min
Overall bit rate               : 15.2 Mb/s
Encoded date                   : UTC 2021-12-02 07:38:40
Writing application            : mkvmerge v63.0.0 ('Everything') 64-bit
Writing library                : libebml v1.4.2 + libmatroska v1.6.4
IsTruncated                    : Yes

Video
ID                             : 1
Format                         : HEVC
Format/Info                    : High Efficiency Video Coding
Format profile                 : Main 10@L5@Main
HDR format                     : SMPTE ST 2094 App 4, Version 1, HDR10+ Profile B compatible
Codec ID                       : V_MPEGH/ISO/HEVC
Duration                       : 1 h 38 min
Bit rate                       : 14.1 Mb/s
Width                          : 3 840 pixels
Height                         : 2 160 pixels
Display aspect ratio           : 16:9
Frame rate mode                : Constant
Frame rate                     : 23.976 (24000/1001) FPS
Color space                    : YUV
Chroma subsampling             : 4:2:0
Bit depth                      : 10 bits
Bits/(Pixel*Frame)             : 0.071
Stream size                    : 9.67 GiB (93%)
Default                        : Yes
Forced                         : No
Color range                    : Limited
Color primaries                : BT.2020
Transfer characteristics       : PQ
Matrix coefficients            : BT.2020 non-constant
Mastering display color primar : Display P3
Mastering display luminance    : min: 0.0001 cd/m2, max: 1000 cd/m2
Maximum Content Light Level    : 593 cd/m2
Maximum Frame-Average Light Le : 77 cd/m2

Audio
ID                             : 2
Format                         : E-AC-3 JOC
Format/Info                    : Enhanced AC-3 with Joint Object Coding
Commercial name                : Dolby Digital Plus with Dolby Atmos
Codec ID                       : A_EAC3
Duration                       : 1 h 38 min
Bit rate mode                  : Constant
Bit rate                       : 768 kb/s
Channel(s)                     : 6 channels
Channel layout                 : L R C LFE Ls Rs
Sampling rate                  : 48.0 kHz
Frame rate                     : 31.250 FPS (1536 SPF)
Compression mode               : Lossy
Stream size                    : 540 MiB (5%)
Title                          : English
Language                       : English
Service kind                   : Complete Main
Default                        : No
Forced                         : No
Complexity index               : 16
Number of dynamic objects      : 15
Bed channel count              : 1 channel
Bed channel configuration      : LFE

Text #1
ID                             : 3
Format                         : UTF-8
Codec ID                       : S_TEXT/UTF8
Codec ID/Info                  : UTF-8 Plain Text
Title                          : English
Language                       : English
Default                        : Yes
Forced                         : No

Text #2
ID                             : 4
Format                         : UTF-8
Codec ID                       : S_TEXT/UTF8
Codec ID/Info                  : UTF-8 Plain Text
Title                          : English [SDH]
Language                       : English
Default                        : No
Forced                         : No

Text #3
ID                             : 5
Format                         : UTF-8
Codec ID                       : S_TEXT/UTF8
Codec ID/Info                  : UTF-8 Plain Text
Title                          : French (Canada)
Language                       : French
Default                        : No
Forced                         : No

Menu
00:00:00.000                   : en:Studio Logo
00:01:12.000                   : en:Opening Credits
00:03:02.000                   : en:Scene 3
00:07:53.000                   : en:Scene 4
00:10:05.000                   : en:Scene 5
00:11:06.000                   : en:Scene 6
00:12:34.000                   : en:Scene 7
00:14:37.000                   : en:Scene 8
00:16:05.000                   : en:Scene 9
00:22:38.000                   : en:Scene 10
00:26:04.000                   : en:Scene 11
00:28:20.000                   : en:Scene 12
00:35:19.000                   : en:Scene 13
00:39:47.000                   : en:Scene 14
00:46:22.000                   : en:Scene 15
00:52:01.000                   : en:Scene 16
00:54:33.000                   : en:Scene 17
01:00:31.000                   : en:Scene 18
01:10:11.000                   : en:Scene 19
01:13:32.000                   : en:Scene 20
01:19:45.000                   : en:Scene 21
01:22:22.000                   : en:Scene 22
01:25:07.000                   : en:Scene 23
01:33:23.000                   : en:End Credits


迅雷下载资源速度为零或资源敏感被和谐时,推荐使用qBittorrent等下载软件,有条件的推荐115更好的下载软件!

游客,如果您要查看本帖隐藏内容请回复

游客,如果您要查看本帖隐藏内容请回复

游客,如果您要查看本帖隐藏内容请回复



.

上一篇:喧闹一家亲:圣诞节大冒险!(真人版) (2021) 4K高清版本下载
下一篇:你房里有人(内封简繁中字) (2021) 4K高清版本下载
回复

使用道具 举报

2

主题

1710

帖子

4666

积分

4K家园VIP

Rank: 9Rank: 9Rank: 9

积分
4666
发表于 2021-12-2 20:57:29 | 显示全部楼层
嘘,低调。
回复 支持 反对

使用道具 举报

3

主题

1262

帖子

3810

积分

4K家园VIP

Rank: 9Rank: 9Rank: 9

积分
3810
发表于 2021-12-2 20:57:29 | 显示全部楼层
锄禾日当午,发帖真辛苦。谁知坛中餐,帖帖皆辛苦!
回复 支持 反对

使用道具 举报

3

主题

1420

帖子

4114

积分

4K家园VIP

Rank: 9Rank: 9Rank: 9

积分
4114
发表于 2021-12-2 21:01:05 | 显示全部楼层
支持一下楼主,顶起来
回复 支持 反对

使用道具 举报

0

主题

2

帖子

9

积分

新手上路

Rank: 1

积分
9
发表于 2021-12-2 21:15:24 | 显示全部楼层

cumming on tits

cumming on tits
回复 支持 反对

使用道具 举报

2

主题

1380

帖子

4113

积分

4K家园VIP

Rank: 9Rank: 9Rank: 9

积分
4113
发表于 2021-12-2 21:23:54 | 显示全部楼层
前排支持下了哦~
回复 支持 反对

使用道具 举报

0

主题

7280

帖子

1万

积分

4K家园VIP

Rank: 9Rank: 9Rank: 9

积分
16651
发表于 2021-12-2 21:24:46 | 显示全部楼层
太好啦&萬分感謝版主的無私發佈分享%
回复 支持 反对

使用道具 举报

14

主题

1199

帖子

3587

积分

4K家园VIP

Rank: 9Rank: 9Rank: 9

积分
3587
发表于 2021-12-2 21:45:52 | 显示全部楼层
路过的帮顶
回复 支持 反对

使用道具 举报

您需要登录后才可以回帖 登录 | 立即注册

本版积分规则

精彩图文
Archiver|手机版|TAG|Sitemap|新帖|专题|联系我们:邮箱: 4kjia.com@gmail.com   

4k家园   ©2019