[4K电影] 平安夜 / Silent Night (2021) 4K高清版本下载

[复制链接]

1323

主题

1428

帖子

1万

积分

超级版主

Rank: 8Rank: 8

积分
11131
 楼主| 发表于 2021-12-3 12:19:08 | 显示全部楼层 |阅读模式
本帖最后由 最爱4K哟 于 2021-12-3 17:59 编辑

QQ图片20211203113003_副本.png

◎译  名 平安夜
◎片  名 Silent Night
◎年  代 2021
◎产  地 英国
◎类  别 剧情 / 喜剧 / 恐怖
◎语  言 英语
◎上映日期 2021-09-16(多伦多电影节) / 2021-12-03(英国)
◎IMDb评分  6.3/10 from 490 users
◎IMDb链接  https://www.imdb.com/title/tt11628854
◎豆瓣评分 0/10 from 0 users
◎豆瓣链接 https://movie.douban.com/subject/34951617/
◎片  长 92分钟
◎导  演 卡米尔·格里芬
◎编  剧 卡米尔·格里芬
◎主  演 凯拉·奈特莉
                   马修·古迪
                   罗曼·格里芬·戴维斯
                   莉莉-罗丝·德普
                   安娜贝拉·沃丽丝
                   露茜·彭奇
                   柯尔比·豪威尔-巴普蒂斯特
                   索佩·迪瑞苏
                   楚蒂·斯泰勒
                   霍莉·艾尔德
                   鲁弗斯·琼斯
                   吉尔比·格里芬·戴维斯
                   哈迪·格里芬·戴维斯
                   Dora Davis
                   Davida McKenzie



◎简  介


       妮尔与赛门是一对夫妻,他们邀约彼此最亲密的友人,前来乡间小屋共进圣诞晚餐。众人在餐宴中把酒言欢、尽情享乐、互诉心底秘密,不过在笑声背后,一切都只是彼此的强作镇定。因为外在世界即将面临迫在眉睫的厄运,就算再多的礼物与游戏,都无法阻止他们在地球上最后一夜的命运……               
General
Complete name                  : E:\4K@电影\Silent.Night.Und.Morgen.Sind.Wir.Tot.2021.2160p.WEB-DL.DD5.1.HDR.HEVC-EVO.mkv
Format                         : Matroska
Format version                 : Version 4
File size                      : 9.19 GiB
Duration                       : 1 h 30 min
Overall bit rate               : 14.5 Mb/s
Encoded date                   : UTC 2021-12-03 00:02:23
Writing application            : mkvmerge v45.0.0 ('Heaven in Pennies') 64-bit
Writing library                : libebml v1.3.10 + libmatroska v1.5.2

Video
ID                             : 1
Format                         : HEVC
Format/Info                    : High Efficiency Video Coding
Format profile                 : Main 10@L5@High
HDR format                     : SMPTE ST 2086, HDR10 compatible
Codec ID                       : V_MPEGH/ISO/HEVC
Duration                       : 1 h 30 min
Bit rate                       : 14.2 Mb/s
Width                          : 3 836 pixels
Height                         : 1 604 pixels
Display aspect ratio           : 2.40:1
Frame rate mode                : Constant
Frame rate                     : 23.976 (24000/1001) FPS
Color space                    : YUV
Chroma subsampling             : 4:2:0 (Type 2)
Bit depth                      : 10 bits
Bits/(Pixel*Frame)             : 0.096
Stream size                    : 8.95 GiB (97%)
Default                        : Yes
Forced                         : No
Color range                    : Limited
Color primaries                : BT.2020
Transfer characteristics       : PQ
Matrix coefficients            : BT.2020 non-constant
Mastering display color primar : Display P3
Mastering display luminance    : min: 0.0005 cd/m2, max: 1000 cd/m2
Maximum Content Light Level    : 318 cd/m2
Maximum Frame-Average Light Le : 112 cd/m2

Audio
ID                             : 2
Format                         : AC-3
Format/Info                    : Audio Coding 3
Commercial name                : Dolby Digital
Codec ID                       : A_AC3
Duration                       : 1 h 30 min
Bit rate mode                  : Constant
Bit rate                       : 384 kb/s
Channel(s)                     : 6 channels
Channel layout                 : L R C LFE Ls Rs
Sampling rate                  : 48.0 kHz
Frame rate                     : 31.250 FPS (1536 SPF)
Compression mode               : Lossy
Stream size                    : 249 MiB (3%)
Title                          : English
Language                       : English
Service kind                   : Complete Main
Default                        : No
Forced                         : No

迅雷下载资源速度为零,资源敏感或被和谐时,推荐使用qBittorrent等无限速下载软件,有条件的推荐115更好的下载软件!

****此区域为收费内容****    需支付 9 金币后可查看立即购买
游客,如果您要查看本帖隐藏内容请回复

****此区域为收费内容****    需支付 9 金币后可查看立即购买

游客,如果您要查看本帖隐藏内容请回复



.


上一篇:蜘蛛侠:英雄远征 (内封中字) (2019) 4K高清IMAX版本下载
下一篇:玛丽亚·凯莉的圣诞节:魔法继续 (中字) (2021) 4K高清版本下载
回复

使用道具 举报

2

主题

1133

帖子

3421

积分

4K家园VIP

Rank: 9Rank: 9Rank: 9

积分
3421
发表于 2021-12-3 12:19:12 | 显示全部楼层
看起来好像不错的样子
回复 支持 反对

使用道具 举报

0

主题

7239

帖子

1万

积分

4K家园VIP

Rank: 9Rank: 9Rank: 9

积分
16578
发表于 2021-12-3 12:45:22 | 显示全部楼层
太好啦&萬分感謝版主的無私發佈分享%
回复 支持 反对

使用道具 举报

0

主题

237

帖子

1455

积分

注册会员

Rank: 2

积分
1455
发表于 2021-12-3 13:42:49 | 显示全部楼层
感謝版主的無私發佈
回复 支持 反对

使用道具 举报

0

主题

7239

帖子

1万

积分

4K家园VIP

Rank: 9Rank: 9Rank: 9

积分
16578
发表于 2021-12-3 18:24:57 | 显示全部楼层
太好啦&萬分感謝版主的無私發佈分享%
回复 支持 反对

使用道具 举报

40

主题

1470

帖子

4216

积分

4K家园VIP

Rank: 9Rank: 9Rank: 9

积分
4216
发表于 2021-12-4 10:32:41 | 显示全部楼层
非常好,顶一下
回复 支持 反对

使用道具 举报

39

主题

1485

帖子

4249

积分

4K家园VIP

Rank: 9Rank: 9Rank: 9

积分
4249
发表于 2021-12-4 19:55:29 | 显示全部楼层
纯粹路过,没任何兴趣,仅仅是看在老用户份上回复一下
回复 支持 反对

使用道具 举报

3

主题

1576

帖子

4322

积分

4K家园VIP

Rank: 9Rank: 9Rank: 9

积分
4322
发表于 2021-12-5 02:52:56 来自手机 | 显示全部楼层
4K家园资源最近貌似越来越多了
回复 支持 反对

使用道具 举报

2

主题

1624

帖子

4512

积分

4K家园VIP

Rank: 9Rank: 9Rank: 9

积分
4512
发表于 2021-12-6 08:08:53 来自手机 | 显示全部楼层
LZ敢整点更有创意的不?兄弟们等着围观捏~
回复 支持 反对

使用道具 举报

0

主题

1

帖子

6

积分

新手上路

Rank: 1

积分
6
发表于 2021-12-7 19:21:13 | 显示全部楼层
要怎么才能看呢
回复 支持 反对

使用道具 举报

您需要登录后才可以回帖 登录 | 立即注册

本版积分规则

精彩图文
Archiver|手机版|TAG|Sitemap|新帖|专题|联系我们:邮箱: 4kjia.com@gmail.com   

4k家园   ©2019