[4Kjia独享4K资源] 最后一击 / Last Shoot Out (2021) 4K高清版本下载

[复制链接]

1323

主题

1428

帖子

1万

积分

超级版主

Rank: 8Rank: 8

积分
11131
 楼主| 发表于 2021-12-3 18:17:39 | 显示全部楼层 |阅读模式

QQ图片20211203181541_副本.png

◎译  名 最后一击
◎片  名 Last Shoot Out
◎年  代 2021
◎产  地 美国
◎类  别 动作 / 西部
◎语  言 英语
◎上映日期 2021-12-03(美国)
◎IMDb评分  0/10 from 0 users
◎IMDb链接  https://www.imdb.com/title/tt11833670
◎豆瓣评分 0/10 from 0 users
◎豆瓣链接 https://movie.douban.com/subject/35632617/
◎片  长 86分钟
◎导  演 迈克尔·费法
◎编  剧 李·马丁
◎主  演 布洛克·哈里斯
                   斯凯拉·维特
                   彼得·谢莱科
                   杰伊·皮克特
                  卡亚·科利



◎简  介

       新婚乔斯琳得知她的丈夫乔迪(迈克尔·韦尔奇,暮光之城系列)让她的父亲被枪杀后,她害怕地逃离了卡拉汉牧场。她被枪手比利·泰森 (Billy Tyson) 救出,后者在偏远的前哨站保护她,阻止乔迪夺回新娘的企图。
General
Complete name                  : H:\4K@电影\Last.Shoot.Out.2021.2160p.WEB-DL.DD5.1.HEVC-EVO.mkv
Format                         : Matroska
Format version                 : Version 4
File size                      : 7.41 GiB
Duration                       : 1 h 26 min
Overall bit rate               : 12.3 Mb/s
Encoded date                   : UTC 2021-12-03 05:48:55
Writing application            : mkvmerge v45.0.0 ('Heaven in Pennies') 64-bit
Writing library                : libebml v1.3.10 + libmatroska v1.5.2
IsTruncated                    : Yes

Video
ID                             : 1
Format                         : HEVC
Format/Info                    : High Efficiency Video Coding
Format profile                 : Main 10@L5@High
Codec ID                       : V_MPEGH/ISO/HEVC
Duration                       : 1 h 26 min
Bit rate                       : 11.7 Mb/s
Width                          : 3 832 pixels
Height                         : 2 152 pixels
Display aspect ratio           : 16:9
Frame rate mode                : Constant
Frame rate                     : 23.976 (24000/1001) FPS
Color space                    : YUV
Chroma subsampling             : 4:2:0
Bit depth                      : 10 bits
Bits/(Pixel*Frame)             : 0.059
Stream size                    : 7.03 GiB (95%)
Default                        : Yes
Forced                         : No
Color range                    : Limited
Color primaries                : BT.709
Transfer characteristics       : BT.709
Matrix coefficients            : BT.709

Audio
ID                             : 2
Format                         : AC-3
Format/Info                    : Audio Coding 3
Commercial name                : Dolby Digital
Codec ID                       : A_AC3
Duration                       : 1 h 26 min
Bit rate mode                  : Constant
Bit rate                       : 384 kb/s
Channel(s)                     : 6 channels
Channel layout                 : L R C LFE Ls Rs
Sampling rate                  : 48.0 kHz
Frame rate                     : 31.250 FPS (1536 SPF)
Compression mode               : Lossy
Stream size                    : 236 MiB (3%)
Title                          : English
Language                       : English
Service kind                   : Complete Main
Default                        : No
Forced                         : No


迅雷下载资源速度为零,资源敏感或被和谐时,推荐使用qBittorrent等无限速下载软件,有条件的推荐115更好的下载软件!

下载地址

****此区域为收费内容****    需支付 9 金币后可查看立即购买



.

.

上一篇:谋杀游戏 / This Game's Called Murder (2021) 4K高清版本下载
下一篇:黑衣人(内封中字) / Men in Black (1997) 4K高清版本下载
回复

使用道具 举报

50

主题

1468

帖子

4266

积分

4K家园VIP

Rank: 9Rank: 9Rank: 9

积分
4266
发表于 2021-12-3 18:17:43 | 显示全部楼层
秀起来~
回复 支持 反对

使用道具 举报

3

主题

1634

帖子

4470

积分

4K家园VIP

Rank: 9Rank: 9Rank: 9

积分
4470
发表于 2021-12-3 18:17:43 来自手机 | 显示全部楼层
路过
回复 支持 反对

使用道具 举报

49

主题

1492

帖子

4306

积分

4K家园VIP

Rank: 9Rank: 9Rank: 9

积分
4306
发表于 2021-12-3 22:30:34 来自手机 | 显示全部楼层
不错 支持一个了
回复 支持 反对

使用道具 举报

1

主题

1387

帖子

4177

积分

4K家园VIP

Rank: 9Rank: 9Rank: 9

积分
4177
发表于 2021-12-4 11:52:42 | 显示全部楼层
沙发位出租,
回复 支持 反对

使用道具 举报

0

主题

1277

帖子

3853

积分

4K家园VIP

Rank: 9Rank: 9Rank: 9

积分
3853
发表于 2021-12-4 14:36:01 来自手机 | 显示全部楼层
锄禾日当午,发帖真辛苦。谁知坛中餐,帖帖皆辛苦!
回复 支持 反对

使用道具 举报

您需要登录后才可以回帖 登录 | 立即注册

本版积分规则

精彩图文
Archiver|手机版|TAG|Sitemap|新帖|专题|联系我们:邮箱: 4kjia.com@gmail.com   

4k家园   ©2019