[4K电影] 泰国洞穴救援 / The Rescue (2021) 4K高清版本下载

[复制链接]

1323

主题

1428

帖子

1万

积分

超级版主

Rank: 8Rank: 8

积分
11131
 楼主| 发表于 2021-12-4 20:09:05 | 显示全部楼层 |阅读模式
本帖最后由 最爱4K哟 于 2021-12-4 21:24 编辑

QQ图片20211204211901_副本.png

◎译  名 泰国洞穴救援
◎片  名 The Rescue
◎年  代 2021
◎产  地 美国
◎类  别 纪录片
◎语  言 英语
◎上映日期 2021-09-02(特柳赖德电影节) / 2021-10-08(美国)
◎IMDb评分  8.3/10 from 803 users
◎IMDb链接  https://www.imdb.com/title/tt13834480/
◎豆瓣评分 8.2/10 from 129 users
◎豆瓣链接 https://movie.douban.com/subject/33413473/
◎片  长 114分钟
◎导  演 金国威 / 伊丽莎白·柴·瓦沙瑞莉



◎简  介

        讲述被困的野猪少年足球队及他们2018年在泰国戏剧性救援的故事。
General
Complete name                  : H:\4K@电影\The.Rescue.2021.2160p.WEB-DL.DDP5.1.HDR.HEVC-TEPES.mkv
Format                         : Matroska
Format version                 : Version 4
File size                      : 16.6 GiB
Duration                       : 1 h 47 min
Overall bit rate               : 22.2 Mb/s
Writing application            : mkvmerge v63.0.0 ('Everything') 64-bit
Writing library                : libebml v1.4.2 + libmatroska v1.6.4
IsTruncated                    : Yes

Video
ID                             : 1
Format                         : HEVC
Format/Info                    : High Efficiency Video Coding
Format profile                 : Main 10@L5@Main
Codec ID                       : V_MPEGH/ISO/HEVC
Duration                       : 1 h 47 min
Bit rate                       : 21.5 Mb/s
Width                          : 3 840 pixels
Height                         : 2 160 pixels
Display aspect ratio           : 16:9
Frame rate mode                : Constant
Frame rate                     : 24.000 FPS
Color space                    : YUV
Chroma subsampling             : 4:2:0
Bit depth                      : 10 bits
Bits/(Pixel*Frame)             : 0.108
Stream size                    : 16.1 GiB (97%)
Writing library                : x265 3.5:[Linux][GCC 9.3.0][64 bit] 10bit
Encoding settings              : cpuid=1111039 / frame-threads=1 / numa-pools=16 / wpp / no-pmode / no-pme / no-psnr / no-ssim / log-level=2 / input-csp=1 / input-res=3840x2160 / interlace=0 / total-frames=0 / level-idc=50 / high-tier=0 / uhd-bd=0 / ref=3 / no-allow-non-conformance / repeat-headers / annexb / no-aud / no-hrd / info / hash=0 / no-temporal-layers / no-open-gop / min-keyint=48 / keyint=48 / gop-lookahead=0 / bframes=2 / b-adapt=0 / b-pyramid / bframe-bias=0 / rc-lookahead=48 / lookahead-slices=8 / scenecut=0 / hist-scenecut=0 / radl=0 / no-splice / no-intra-refresh / ctu=32 / min-cu-size=8 / no-rect / no-amp / max-tu-size=16 / tu-inter-depth=2 / tu-intra-depth=2 / limit-tu=0 / rdoq-level=1 / dynamic-rd=0.00 / no-ssim-rd / signhide / no-tskip / nr-intra=0 / nr-inter=0 / no-constrained-intra / no-strong-intra-smoothing / max-merge=3 / limit-refs=1 / no-limit-modes / me=1 / subme=2 / merange=44 / temporal-mvp / no-frame-dup / no-hme / weightp / no-weightb / no-analyze-src-pics / deblock=0:0 / no-sao / no-sao-non-deblock / rd=4 / selective-sao=0 / early-skip / rskip / no-fast-intra / no-tskip-fast / no-cu-lossless / b-intra / no-splitrd-skip / rdpenalty=1 / psy-rd=1.60 / psy-rdoq=5.00 / no-rd-refine / no-lossless / cbqpoffs=0 / crqpoffs=0 / rc=abr / bitrate=23000 / qcomp=0.75 / qpstep=4 / stats-write=0 / stats-read=0 / vbv-maxrate=25000 / vbv-bufsize=25000 / vbv-init=0.9 / ipratio=1.40 / pbratio=1.30 / aq-mode=3 / aq-strength=1.00 / no-cutree / zone-count=0 / no-strict-cbr / qg-size=32 / no-rc-grain / qpmax=69 / qpmin=0 / no-const-vbv / sar=1 / overscan=0 / videoformat=5 / range=0 / colorprim=9 / transfer=16 / colormatrix=9 / chromaloc=0 / display-window=0 / cll=0,0 / min-luma=0 / max-luma=1023 / log2-max-poc-lsb=8 / vui-timing-info / vui-hrd-info / slices=1 / no-opt-qp-pps / no-opt-ref-list-length-pps / no-multi-pass-opt-rps / scenecut-bias=0.00 / hist-threshold=0.01 / no-opt-cu-delta-qp / no-aq-motion / no-hdr10 / hdr10-opt / no-dhdr10-opt / no-idr-recovery-sei / analysis-reuse-level=0 / analysis-save-reuse-level=0 / analysis-load-reuse-level=0 / scale-factor=0 / refine-intra=0 / refine-inter=0 / refine-mv=1 / refine-ctu-distortion=0 / no-limit-sao / ctu-info=0 / no-lowpass-dct / refine-analysis-type=0 / copy-pic=1 / max-ausize-factor=1.0 / no-dynamic-refine / no-single-sei / no-hevc-aq / no-svt / no-field / qp-adaptation-range=1.00 / no-scenecut-aware-qpconformance-window-offsets / right=0 / bottom=0
Default                        : Yes
Forced                         : No
Color range                    : Limited
Color primaries                : BT.2020
Transfer characteristics       : PQ
Matrix coefficients            : BT.2020 non-constant

Audio
ID                             : 2
Format                         : E-AC-3
Format/Info                    : Enhanced AC-3
Commercial name                : Dolby Digital Plus
Codec ID                       : A_EAC3
Duration                       : 1 h 47 min
Bit rate mode                  : Constant
Bit rate                       : 256 kb/s
Channel(s)                     : 6 channels
Channel layout                 : L R C LFE Ls Rs
Sampling rate                  : 48.0 kHz
Frame rate                     : 31.250 FPS (1536 SPF)
Compression mode               : Lossy
Delay relative to video        : 3 s 0 ms
Stream size                    : 196 MiB (1%)
Language                       : English
Service kind                   : Complete Main
Default                        : Yes
Forced                         : No

Text #1
ID                             : 3
Format                         : UTF-8
Codec ID                       : S_TEXT/UTF8
Codec ID/Info                  : UTF-8 Plain Text
Language                       : English
Default                        : No
Forced                         : No

Text #2
ID                             : 4
Format                         : UTF-8
Codec ID                       : S_TEXT/UTF8
Codec ID/Info                  : UTF-8 Plain Text
Title                          : SDH
Language                       : English
Default                        : No
Forced                         : No

Menu
01:45:18.000                   : en:Credits

迅雷下载资源速度为零,资源敏感或被和谐时,推荐使用qBittorrent等无限速下载软件,有条件的推荐115更好的下载软件!

下载地址

游客,如果您要查看本帖隐藏内容请回复

游客,如果您要查看本帖隐藏内容请回复

游客,如果您要查看本帖隐藏内容请回复





.

上一篇:糖衣陷阱 / The Firm (1993) 4K高清版本下载
下一篇:加勒比海盗(内封中字)(2003) 4K高清版本下载
回复

使用道具 举报

2

主题

1686

帖子

4688

积分

4K家园VIP

Rank: 9Rank: 9Rank: 9

积分
4688
发表于 2021-12-4 20:09:10 | 显示全部楼层
站位支持
回复 支持 反对

使用道具 举报

0

主题

7236

帖子

1万

积分

4K家园VIP

Rank: 9Rank: 9Rank: 9

积分
16568
发表于 2021-12-4 21:53:50 | 显示全部楼层
泰國洞穴救援4k
回复 支持 反对

使用道具 举报

0

主题

2

帖子

9

积分

新手上路

Rank: 1

积分
9
发表于 2021-12-5 18:30:46 | 显示全部楼层

cam to cam nude

cam to cam nude
回复 支持 反对

使用道具 举报

0

主题

1

帖子

6

积分

新手上路

Rank: 1

积分
6
发表于 2021-12-6 00:04:17 | 显示全部楼层
great thanks
回复 支持 反对

使用道具 举报

2

主题

1373

帖子

4139

积分

4K家园VIP

Rank: 9Rank: 9Rank: 9

积分
4139
发表于 2021-12-6 15:10:11 来自手机 | 显示全部楼层
垃圾内容,路过为证。
回复 支持 反对

使用道具 举报

0

主题

1

帖子

9

积分

新手上路

Rank: 1

积分
9
发表于 2021-12-6 17:59:13 | 显示全部楼层
谢谢楼主
回复

使用道具 举报

40

主题

1456

帖子

4184

积分

4K家园VIP

Rank: 9Rank: 9Rank: 9

积分
4184
发表于 2021-12-8 13:50:19 | 显示全部楼层
没看懂
回复 支持 反对

使用道具 举报

1

主题

1348

帖子

3898

积分

4K家园VIP

Rank: 9Rank: 9Rank: 9

积分
3898
发表于 2021-12-9 00:08:54 | 显示全部楼层
秀起来~
回复 支持 反对

使用道具 举报

0

主题

3

帖子

22

积分

新手上路

Rank: 1

积分
22
发表于 2021-12-10 09:03:06 | 显示全部楼层
The RescueThe RescueThe Rescue
回复 支持 反对

使用道具 举报

您需要登录后才可以回帖 登录 | 立即注册

本版积分规则

精彩图文
Archiver|手机版|TAG|Sitemap|新帖|专题|联系我们:邮箱: 4kjia.com@gmail.com   

4k家园   ©2019