[4K UHD 蓝光原盘] 哭泣的男人(俄版) / Cry Macho (2021) 4K蓝光REMUX版本下载

[复制链接]

1314

主题

1381

帖子

1万

积分

超级版主

Rank: 8Rank: 8

积分
15409
 楼主| 发表于 2021-12-7 03:30:00 | 显示全部楼层 |阅读模式
QQ图片20211206211956_副本.png

◎译  名 哭泣的男人
◎片  名 Cry Macho
◎年  代 2021
◎产  地 美国
◎类  别 剧情 / 惊悚 / 西部
◎语  言 英语
◎上映日期 2021-09-17(美国/美国网络)
◎IMDb评分  5.7/10 from 17094 users
◎IMDb链接  https://www.imdb.com/title/tt1924245/
◎豆瓣评分 6.5/10 from 2886 users
◎豆瓣链接 https://movie.douban.com/subject/10523152/
◎片  长 104分钟
◎导  演 克林特·伊斯特伍德 Clint Eastwood
◎编  剧 N·理查德·纳什 N. Richard Nash / 尼克·申克 Nick Schenk
◎主  演 克林特·伊斯特伍德 Clint Eastwood
      德怀特·尤科姆 Dwight Yoakam
      费兰达·乌雷霍拉 Fernanda Urrejola
      霍拉西欧·加西亚·罗哈斯 Horacio Garcia Rojas
      丹尼尔V·格拉劳 Daniel V. Graulau
      保罗·阿拉约 Paul Alayo
      娜塔莉娅·特拉文 Natalia Traven
      萨罗·索利斯 Saro Solis


◎简  介

  影片讲述了一名驯马师为了养老金和自己破产的牧场老板达成协议,从老板富有的墨西哥前妻那里绑架老板11岁的儿子以索要赎金。然而老板的前妻正为这个不良少年头疼,巴不得甩掉这个包袱,事情朝着意料之外的方向发展……

General
Complete name : E:VideoCry.Macho.2021.BDREMUX.2160p.HDR.seleZen.mkv
Format : Matroska
Format version : Version 4
File size : 49.3 GiB
Duration : 1 h 43 min
Overall bit rate mode : Variable
Overall bit rate : 67.9 Mb/s
Movie name : Cry Macho 2021 from seleZen
Encoded date : UTC 2021-12-05 21:24:19
Writing application : mkvmerge v59.0.0 ('Shining Star') 64-bit
Writing library : libebml v1.4.2 + libmatroska v1.6.4

Video
ID : 1
Format : HEVC
Format/Info : High Efficiency Video Coding
Format profile : Main 10@L5.1@High
HDR format : SMPTE ST 2086, HDR10 compatible
Codec ID : V_MPEGH/ISO/HEVC
Duration : 1 h 43 min
Bit rate : 64.0 Mb/s
Width : 3 840 pixels
Height : 2 160 pixels
Display aspect ratio : 16:9
Frame rate mode : Constant
Frame rate : 23.976 (24000/1001) FPS
Color space : YUV
Chroma subsampling : 4:2:0 (Type 2)
Bit depth : 10 bits
Bits/(Pixel*Frame) : 0.322
Stream size : 46.5 GiB (94%)
Writing library : ATEME Titan File 3.9.6 (4.9.6.2)
Language : English
Default : Yes
Forced : No
Color range : Limited
Color primaries : BT.2020
Transfer characteristics : PQ
Matrix coefficients : BT.2020 non-constant
Mastering display color primaries : Display P3
Mastering display luminance : min: 0.0050 cd/m2, max: 4000 cd/m2
Maximum Content Light Level : 1134 cd/m2
Maximum Frame-Average Light Level : 104 cd/m2

Audio #1
ID : 2
Format : AC-3
Format/Info : Audio Coding 3
Commercial name : Dolby Digital
Codec ID : A_AC3
Duration : 1 h 43 min
Bit rate mode : Constant
Bit rate : 384 kb/s
Channel(s) : 6 channels
Channel layout : L R C LFE Ls Rs
Sampling rate : 48.0 kHz
Frame rate : 31.250 FPS (1536 SPF)
Compression mode : Lossy
Stream size : 285 MiB (0%)
Title : Dub
Language : Russian
Service kind : Complete Main
Default : Yes
Forced : Yes

Audio #2
ID : 3
Format : DTS XLL
Format/Info : Digital Theater Systems
Commercial name : DTS-HD Master Audio
Codec ID : A_DTS
Duration : 1 h 43 min
Bit rate mode : Variable
Bit rate : 3 473 kb/s
Channel(s) : 6 channels
Channel layout : C L R Ls Rs LFE
Sampling rate : 48.0 kHz
Frame rate : 93.750 FPS (512 SPF)
Bit depth : 24 bits
Compression mode : Lossless
Stream size : 2.52 GiB (5%)
Title : Original
Language : English
Default : Yes
Forced : No

Text #1
ID : 4
Format : UTF-8
Codec ID : S_TEXT/UTF8
Codec ID/Info : UTF-8 Plain Text
Duration : 1 h 41 min
Bit rate : 72 b/s
Count of elements : 1239
Stream size : 53.7 KiB (0%)
Title : Full
Language : Russian
Default : No
Forced : No

Text #2
ID : 5
Format : UTF-8
Codec ID : S_TEXT/UTF8
Codec ID/Info : UTF-8 Plain Text
Duration : 1 h 34 min
Bit rate : 44 b/s
Count of elements : 1277
Stream size : 30.9 KiB (0%)
Title : Full
Language : English
Default : No
Forced : No

Text #3
ID : 6
Format : UTF-8
Codec ID : S_TEXT/UTF8
Codec ID/Info : UTF-8 Plain Text
Duration : 1 h 43 min
Bit rate : 51 b/s
Count of elements : 1557
Stream size : 38.9 KiB (0%)
Title : SDH
Language : English
Default : No
Forced : No

Menu
00:00:00.000 : Chapter 01
00:08:56.536 : Chapter 02
00:17:18.371 : Chapter 03
00:26:02.269 : Chapter 04
00:35:10.817 : Chapter 05
00:44:05.810 : Chapter 06
00:52:52.211 : Chapter 07
01:01:32.731 : Chapter 08
01:11:27.950 : Chapter 09
01:21:11.533 : Chapter 10
01:31:12.175 : Chapter 11
01:37:38.227 : Chapter 12

4K蓝光[原盘+REMUX]资源,新种推荐使用qBittorrent、uTorrent等下载软件,有条件的推荐115更好的下载软件!

哭泣的男人(49.28GB)Cry.Macho.2021.BDREMUX.2160p.HDR.seleZen-【4K-蓝光REMUX】
****此区域为收费内容****    需支付 30 金币后可查看立即购买





1心,爱心.gif


上一篇:春光乍洩(国语德字) (1997) 4K蓝光[原盘+REMUX]版本下载
下一篇:蓝色阳光 / Blue Sunshine (1977) 4K蓝光[原盘+REMUX]版本下载
回复

使用道具 举报

62

主题

1470

帖子

4290

积分

4K家园VIP

Rank: 9Rank: 9Rank: 9

积分
4290
发表于 2021-12-7 03:30:04 来自手机 | 显示全部楼层
4K家园资源最近貌似越来越多了
回复 支持 反对

使用道具 举报

6

主题

1182

帖子

3570

积分

4K家园VIP

Rank: 9Rank: 9Rank: 9

积分
3570
发表于 2021-12-7 05:43:54 | 显示全部楼层
谢谢楼主
回复 支持 反对

使用道具 举报

2

主题

1374

帖子

4142

积分

4K家园VIP

Rank: 9Rank: 9Rank: 9

积分
4142
发表于 2021-12-7 06:56:52 来自手机 | 显示全部楼层
4K家园不错,希望这种资源越多越好
回复 支持 反对

使用道具 举报

1

主题

1331

帖子

4009

积分

4K家园VIP

Rank: 9Rank: 9Rank: 9

积分
4009
发表于 2021-12-7 07:06:53 | 显示全部楼层
4K家园资源不错,前排支持
回复 支持 反对

使用道具 举报

3

主题

1248

帖子

3762

积分

4K家园VIP

Rank: 9Rank: 9Rank: 9

积分
3762
发表于 2021-12-7 08:37:33 | 显示全部楼层
多发些资源啊
回复 支持 反对

使用道具 举报

0

主题

7280

帖子

1万

积分

4K家园VIP

Rank: 9Rank: 9Rank: 9

积分
16651
发表于 2021-12-7 09:32:13 | 显示全部楼层
太好啦&萬分感謝版主的無私發佈分享%
回复 支持 反对

使用道具 举报

您需要登录后才可以回帖 登录 | 立即注册

本版积分规则

精彩图文
Archiver|手机版|TAG|Sitemap|新帖|专题|联系我们:邮箱: 4kjia.com@gmail.com   

4k家园   ©2019