[4K电影] 许愿树 / The Wishing Tree (2021) 4K高清版下载

[复制链接]

1323

主题

1428

帖子

1万

积分

超级版主

Rank: 8Rank: 8

积分
11131
 楼主| 发表于 2021-12-7 13:54:00 | 显示全部楼层 |阅读模式
本帖最后由 最爱4K哟 于 2021-12-7 14:49 编辑

QQ图片20211207134218_副本.png

◎译  名 许愿树
◎片  名 The Wishing Tree
◎年  代 2021
◎产  地 加拿大
◎类  别 剧情
◎语  言   英语
◎上映日期 2021-12-07(美国)
◎IMDb评分  5.7/10 from 11 users
◎IMDb链接  https://www.imdb.com/title/tt6545070/
◎片  长 164分钟
◎导  演 劳拉·阿达莫
◎编  剧 劳拉·阿达莫/多米尼克奥尔德/斯蒂芬·钱伯斯
◎主  演 劳拉·阿达莫
                  塞巴斯蒂安·罗伯茨
                  牛郎星文森特
                  杰克迈克尔斯
                  瓦伦蒂娜·巴特里克
                  布丽吉特罗宾逊
                  路易莎·马丁
                  纳丁·怀特曼·罗登
                  劳拉·斯捷潘切夫
                  哈米特·巴蒂
                  斯科特·科波拉
                  卢克·里奇利


◎简  介


         《许愿树》讲述了一位女性远足探险的故事,该探险之旅旨在寻求视角、和平、答案,并最终寻求治愈个人悲剧的方法。在徒步旅行时,朱莉娅遇到了迦勒和瑞安,这两个家伙也在与自己的恶魔打交道。一次意外的自我发现和转变之旅,说明有时可以以最不可能的方式发现希望。这部电影以安大略省北部远足径最令人惊叹的背景为背景
General
Complete name                  : H:\4K@电影\The.Wishing.Tree.2021.2160p.WEB-DL.x265.10bit.SDR.DD5.1-NOGRP.mkv
Format                         : Matroska
Format version                 : Version 4
File size                      : 7.36 GiB
Duration                       : 1 h 25 min
Overall bit rate               : 12.3 Mb/s
Encoded date                   : UTC 2021-12-06 14:04:55
Writing application            : mkvmerge v45.0.0 ('Heaven in Pennies') 64-bit
Writing library                : libebml v1.3.10 + libmatroska v1.5.2

Video
ID                             : 1
Format                         : HEVC
Format/Info                    : High Efficiency Video Coding
Format profile                 : Main 10@L5@High
Codec ID                       : V_MPEGH/ISO/HEVC
Duration                       : 1 h 25 min
Bit rate                       : 11.9 Mb/s
Width                          : 3 840 pixels
Height                         : 1 576 pixels
Display aspect ratio           : 2.40:1
Frame rate mode                : Constant
Frame rate                     : 23.976 (24000/1001) FPS
Color space                    : YUV
Chroma subsampling             : 4:2:0
Bit depth                      : 10 bits
Bits/(Pixel*Frame)             : 0.082
Stream size                    : 7.12 GiB (97%)
Default                        : Yes
Forced                         : No
Color range                    : Limited
Color primaries                : BT.709
Transfer characteristics       : BT.709
Matrix coefficients            : BT.709

Audio
ID                             : 2
Format                         : AC-3
Format/Info                    : Audio Coding 3
Commercial name                : Dolby Digital
Codec ID                       : A_AC3
Duration                       : 1 h 25 min
Bit rate mode                  : Constant
Bit rate                       : 384 kb/s
Channel(s)                     : 6 channels
Channel layout                 : L R C LFE Ls Rs
Sampling rate                  : 48.0 kHz
Frame rate                     : 31.250 FPS (1536 SPF)
Compression mode               : Lossy
Stream size                    : 235 MiB (3%)
Title                          : English
Language                       : English
Service kind                   : Complete Main
Default                        : No
Forced                         : No

迅雷下载资源速度为零,资源敏感或被和谐时,推荐使用qBittorrent等无限速下载软件,有条件的推荐115更好的下载软件!

下载地址

游客,如果您要查看本帖隐藏内容请回复











上一篇:忍者神龟2:破影而出(2016) 4K高清版本下载
下一篇:玛雅和她的情人 / Maya.and.Her.Lover (2021) 4K高清版下载
回复

使用道具 举报

1323

主题

1428

帖子

1万

积分

超级版主

Rank: 8Rank: 8

积分
11131
 楼主| 发表于 2021-12-7 15:09:59 | 显示全部楼层
The.Wishing.Tree.2021.2160p.WEB-DL.x265.10bit.SDR.DD5.1-NOGRP.mkv_20211207_145709.892.jpg The.Wishing.Tree.2021.2160p.WEB-DL.x265.10bit.SDR.DD5.1-NOGRP.mkv_20211207_145721.117.jpg The.Wishing.Tree.2021.2160p.WEB-DL.x265.10bit.SDR.DD5.1-NOGRP.mkv_20211207_145728.612.jpg The.Wishing.Tree.2021.2160p.WEB-DL.x265.10bit.SDR.DD5.1-NOGRP.mkv_20211207_145733.565.jpg The.Wishing.Tree.2021.2160p.WEB-DL.x265.10bit.SDR.DD5.1-NOGRP.mkv_20211207_145740.556.jpg The.Wishing.Tree.2021.2160p.WEB-DL.x265.10bit.SDR.DD5.1-NOGRP.mkv_20211207_145838.636.jpg
回复 支持 反对

使用道具 举报

195

主题

1552

帖子

4258

积分

4K家园VIP

Rank: 9Rank: 9Rank: 9

积分
4258
发表于 2021-12-7 13:54:06 | 显示全部楼层
4K家园不错,希望这种资源越多越好
回复 支持 反对

使用道具 举报

1

主题

1582

帖子

4352

积分

4K家园VIP

Rank: 9Rank: 9Rank: 9

积分
4352
发表于 2021-12-7 14:49:45 | 显示全部楼层
秀起来~
回复 支持 反对

使用道具 举报

0

主题

1346

帖子

3836

积分

中级会员

Rank: 4

积分
3836
发表于 2021-12-7 15:37:55 | 显示全部楼层
正好需要啊
回复 支持 反对

使用道具 举报

1

主题

1598

帖子

4374

积分

4K家园VIP

Rank: 9Rank: 9Rank: 9

积分
4374
发表于 2021-12-7 15:51:16 来自手机 | 显示全部楼层
前排支持下了哦~
回复 支持 反对

使用道具 举报

0

主题

7237

帖子

1万

积分

4K家园VIP

Rank: 9Rank: 9Rank: 9

积分
16569
发表于 2021-12-7 18:14:49 | 显示全部楼层
太好啦&萬分感謝版主的無私發佈分享%
回复 支持 反对

使用道具 举报

34

主题

1510

帖子

4240

积分

4K家园VIP

Rank: 9Rank: 9Rank: 9

积分
4240
发表于 2021-12-7 19:03:39 来自手机 | 显示全部楼层
这个资源我记得是一套的,楼主还有没有
回复 支持 反对

使用道具 举报

您需要登录后才可以回帖 登录 | 立即注册

本版积分规则

精彩图文
Archiver|手机版|TAG|Sitemap|新帖|专题|联系我们:邮箱: 4kjia.com@gmail.com   

4k家园   ©2019