[国家地理] [4K国家地理] 风景如画的克尔科诺谢山脉 (2021) [2160P/MKV/549MB]

[复制链接]

2664

主题

2998

帖子

2万

积分

超级版主

Rank: 8Rank: 8

积分
25020
 楼主| 发表于 2021-12-12 11:02:46 | 显示全部楼层 |阅读模式

(549MB)Karkonosze (2020) WEBRip 2160p.mkv_20211209_122739.684.jpg (549MB)Karkonosze (2020) WEBRip 2160p.mkv_20211209_122810.540.jpg (549MB)Karkonosze (2020) WEBRip 2160p.mkv_20211209_122816.804.jpg (549MB)Karkonosze (2020) WEBRip 2160p.mkv_20211209_122824.477.jpg (549MB)Karkonosze (2020) WEBRip 2160p.mkv_20211209_122833.693.jpg (549MB)Karkonosze (2020) WEBRip 2160p.mkv_20211209_122850.597.jpg

影片信息
片名: 风景如画的克尔科诺谢山脉
发行年份: 2020
国家:捷克共和国
持续时间: 00:03 : 46
类型: 具体
导演: Michał

关于电影:

        几个世纪以来,克尔科诺谢山脉(Krkonoše Mountains)的风景如画、生物多样性以及其文化和历史价值一直为人所知。这些是捷克共和国最高的山脉,它们的最高峰是 Snezka,它比周围景观高出 1,602 m。巨山的地理位置赋予了这些中高山丰富多样的山地云杉和混交林、高草甸、亚北极泥炭沼泽和地衣苔原。每年只有捷克一侧有 600 万人参观巨人山脉,因为这里有全年休闲的条件。
General
Complete name                  : E:\4K国家地理\(549MB)Karkonosze (2020) WEBRip 2160p.mkv
Format                         : Matroska
Format version                 : Version 4
File size                      : 550 MiB
Duration                       : 3 min 46 s
Overall bit rate               : 20.3 Mb/s
Encoded date                   : UTC 2021-11-10 04:43:00
Writing application            : mkvmerge v62.0.0 ('Apollo') 64-bit
Writing library                : libebml v1.4.2 + libmatroska v1.6.4 / IDMmkvlib0.1
Language                       : und

Video
ID                             : 1
Format                         : VP9
Codec ID                       : V_VP9
Duration                       : 3 min 46 s
Bit rate                       : 20.2 Mb/s
Width                          : 3 840 pixels
Height                         : 2 160 pixels
Display aspect ratio           : 16:9
Frame rate mode                : Variable
Frame rate                     : 59.940 (59940/1000) FPS
Bits/(Pixel*Frame)             : 0.041
Stream size                    : 546 MiB (99%)
Default                        : Yes
Forced                         : No

Audio
ID                             : 2
Format                         : Opus
Codec ID                       : A_OPUS
Duration                       : 3 min 46 s
Bit rate                       : 137 kb/s
Channel(s)                     : 2 channels
Channel layout                 : L R
Sampling rate                  : 48.0 kHz
Frame rate                     : 50.000 FPS (960 SPF)
Bit depth                      : 16 bits
Compression mode               : Lossy
Stream size                    : 3.70 MiB (1%)
Default                        : Yes
Forced                         : No




下载地址

****此区域为收费内容****    需支付 15 金币后可查看立即购买






.

上一篇:[4K国家地理] 沙漠中的迪拜 (2021) [2160P/MKV/268MB]
下一篇:[4K国家地理] 电影卷轴:运动 (2021) [2160P/MKV/419MB]
回复

使用道具 举报

48

主题

1471

帖子

4231

积分

4K家园VIP

Rank: 9Rank: 9Rank: 9

积分
4231
发表于 2021-12-12 11:03:03 | 显示全部楼层
楼猪V5啊
回复 支持 反对

使用道具 举报

0

主题

7280

帖子

1万

积分

4K家园VIP

Rank: 9Rank: 9Rank: 9

积分
16651
发表于 2021-12-12 11:31:24 | 显示全部楼层
捷克的克爾科諾謝山脈4k
回复 支持 反对

使用道具 举报

0

主题

1

帖子

9

积分

新手上路

Rank: 1

积分
9
发表于 2021-12-12 15:51:14 | 显示全部楼层
喜欢纪录片,能学到不少东西
回复 支持 反对

使用道具 举报

0

主题

11

帖子

48

积分

新手上路

Rank: 1

积分
48
发表于 2021-12-12 22:08:51 | 显示全部楼层
喜欢纪录片
回复 支持 反对

使用道具 举报

1

主题

1203

帖子

3627

积分

4K家园VIP

Rank: 9Rank: 9Rank: 9

积分
3627
发表于 2021-12-13 03:20:01 来自手机 | 显示全部楼层
支持下楼主,顶一个
回复 支持 反对

使用道具 举报

1

主题

1347

帖子

3847

积分

4K家园VIP

Rank: 9Rank: 9Rank: 9

积分
3847
发表于 2021-12-13 05:26:31 | 显示全部楼层
站位支持
回复 支持 反对

使用道具 举报

1

主题

1638

帖子

4530

积分

4K家园VIP

Rank: 9Rank: 9Rank: 9

积分
4530
发表于 2021-12-14 03:48:18 来自手机 | 显示全部楼层
非常好,顶一下
回复 支持 反对

使用道具 举报

1

主题

1227

帖子

3697

积分

4K家园VIP

Rank: 9Rank: 9Rank: 9

积分
3697
发表于 2021-12-14 10:23:34 | 显示全部楼层
支持一下楼主,顶起来
回复 支持 反对

使用道具 举报

0

主题

689

帖子

2408

积分

注册会员

Rank: 2

积分
2408
发表于 2021-12-26 12:20:09 | 显示全部楼层
谢谢楼主分享
回复 支持 反对

使用道具 举报

您需要登录后才可以回帖 登录 | 立即注册

本版积分规则

精彩图文
Archiver|手机版|TAG|Sitemap|新帖|专题|联系我们:邮箱: 4kjia.com@gmail.com   

4k家园   ©2019