[国家地理] [4K国家地理] 电影卷轴:运动 (2021) [2160P/MKV/419MB]

[复制链接]

2652

主题

2986

帖子

2万

积分

超级版主

Rank: 8Rank: 8

积分
24945
 楼主| 发表于 2021-12-18 13:52:51 | 显示全部楼层 |阅读模式

电影卷轴:运动(419MB) (2021) WEBRip 2160p.mkv_20211209_124307.819.jpg 电影卷轴:运动(419MB) (2021) WEBRip 2160p.mkv_20211209_124314.523.jpg 电影卷轴:运动(419MB) (2021) WEBRip 2160p.mkv_20211209_124330.827.jpg 电影卷轴:运动(419MB) (2021) WEBRip 2160p.mkv_20211209_124336.883.jpg 电影卷轴:运动(419MB) (2021) WEBRip 2160p.mkv_20211209_124347.075.jpg 电影卷轴:运动(419MB) (2021) WEBRip 2160p.mkv_20211209_124353.067.jpg

影片信息
片名: 电影卷轴:运动
发行年份: 2021
国家:美国
持续时间: 00 : 03 : 35
类型: 物种
导演: Alex Meliss

影片简介:
新的 GoPro HERO10 来了!我有幸对这款相机进行了几个月的测试,它在质量和性能方面取得了一些令人印象深刻的改进。


General
Complete name                  : E:\4K国家地理\电影卷轴:运动(419MB) (2021) WEBRip 2160p.mkv
Format                         : Matroska
Format version                 : Version 4
File size                      : 420 MiB
Duration                       : 3 min 35 s
Overall bit rate               : 16.4 Mb/s
Encoded date                   : UTC 2021-10-21 08:45:04
Writing application            : mkvmerge v62.0.0 ('Apollo') 64-bit
Writing library                : libebml v1.4.2 + libmatroska v1.6.4 / IDMmkvlib0.1
Language                       : und

Video
ID                             : 1
Format                         : VP9
Codec ID                       : V_VP9
Duration                       : 3 min 35 s
Bit rate                       : 16.2 Mb/s
Width                          : 3 840 pixels
Height                         : 2 160 pixels
Display aspect ratio           : 16:9
Frame rate mode                : Variable
Frame rate                     : 29.970 (29970/1000) FPS
Bits/(Pixel*Frame)             : 0.065
Stream size                    : 417 MiB (99%)
Default                        : Yes
Forced                         : No

Audio
ID                             : 2
Format                         : Opus
Codec ID                       : A_OPUS
Duration                       : 3 min 35 s
Bit rate                       : 120 kb/s
Channel(s)                     : 2 channels
Channel layout                 : L R
Sampling rate                  : 48.0 kHz
Frame rate                     : 50.000 FPS (960 SPF)
Bit depth                      : 16 bits
Compression mode               : Lossy
Stream size                    : 3.07 MiB (1%)
Default                        : Yes
Forced                         : No


下载地址:

****此区域为收费内容****    需支付 15 金币后可查看立即购买






上一篇:[4K国家地理] 风景如画的克尔科诺谢山脉 (2021) [2160P/MKV/549MB]
下一篇:[4K国家地理] 自由 Svoboda (2021) [2160P/MKV/375MB]
回复

使用道具 举报

2

主题

1388

帖子

4016

积分

中级会员

Rank: 4

积分
4016
发表于 2021-12-18 13:53:01 | 显示全部楼层
顶起出售广告位
回复 支持 反对

使用道具 举报

0

主题

7236

帖子

1万

积分

4K家园VIP

Rank: 9Rank: 9Rank: 9

积分
16568
发表于 2021-12-18 15:03:30 | 显示全部楼层
电影卷轴:运动4k
回复 支持 反对

使用道具 举报

0

主题

8

帖子

85

积分

新手上路

Rank: 1

积分
85
发表于 2021-12-18 16:02:57 | 显示全部楼层
fetgfrrg.jpg
回复 支持 反对

使用道具 举报

0

主题

4

帖子

15

积分

新手上路

Rank: 1

积分
15
发表于 2021-12-18 21:01:27 | 显示全部楼层

谢谢楼主分享
回复 支持 反对

使用道具 举报

0

主题

8

帖子

60

积分

新手上路

Rank: 1

积分
60
发表于 2021-12-19 10:14:39 | 显示全部楼层
有点意思哈哈
回复 支持 反对

使用道具 举报

0

主题

5

帖子

21

积分

新手上路

Rank: 1

积分
21
发表于 2021-12-20 11:07:38 | 显示全部楼层
111111111111
回复 支持 反对

使用道具 举报

40

主题

1502

帖子

4302

积分

4K家园VIP

Rank: 9Rank: 9Rank: 9

积分
4302
发表于 2021-12-20 18:54:25 | 显示全部楼层
楼主这资源不错,我收藏了
回复 支持 反对

使用道具 举报

0

主题

1288

帖子

3690

积分

4K家园VIP

Rank: 9Rank: 9Rank: 9

积分
3690
发表于 2021-12-24 11:57:46 来自手机 | 显示全部楼层
前排顶,很好!
回复 支持 反对

使用道具 举报

2

主题

1669

帖子

4599

积分

4K家园VIP

Rank: 9Rank: 9Rank: 9

积分
4599
发表于 2021-12-24 17:26:07 | 显示全部楼层
前排顶起
回复 支持 反对

使用道具 举报

您需要登录后才可以回帖 登录 | 立即注册

本版积分规则

精彩图文
Archiver|手机版|TAG|Sitemap|新帖|专题|联系我们:邮箱: 4kjia.com@gmail.com   

4k家园   ©2019