[国家地理] [4K国家地理] 仰望美景 (2021) [2160P/MKV/520MB]

[复制链接]

2664

主题

2998

帖子

2万

积分

超级版主

Rank: 8Rank: 8

积分
25020
 楼主| 发表于 2021-12-31 20:52:23 | 显示全部楼层 |阅读模式
仰望(520MB) (2021) WEBRip 2160p.mkv_20211209_131035.129.jpg 仰望(520MB) (2021) WEBRip 2160p.mkv_20211209_131047.504.jpg 仰望(520MB) (2021) WEBRip 2160p.mkv_20211209_131056.368.jpg 仰望(520MB) (2021) WEBRip 2160p.mkv_20211209_131103.544.jpg 仰望(520MB) (2021) WEBRip 2160p.mkv_20211209_131123.336.jpg 仰望(520MB) (2021) WEBRip 2160p.mkv_20211209_131133.296.jpg 仰望(520MB) (2021) WEBRip 2160p.mkv_20211209_131147.152.jpg 仰望(520MB) (2021) WEBRip 2160p.mkv_20211209_131159.360.jpg

影片信息
片名:仰视
上映年份: 2021
国家:美国
持续时间: 00 : 03 : 39
类型: 物种
导演:斯蒂芬·南格罗尼

影片简介:

       近年暑期旅行的瞬间和地点印象。
General
Unique ID                      : 307267895122162775638097288730217718158 (0xE729A4DE434611B1B74E4E5000DEA18E)
Complete name                  : E:\4K国家地理\仰望美景(520MB) (2021) WEBRip 2160p.mkv
Format                         : Matroska
Format version                 : Version 4
File size                      : 520 MiB
Duration                       : 3 min 39 s
Overall bit rate               : 19.9 Mb/s
Encoded date                   : UTC 2021-11-23 16:39:32
Writing application            : mkvmerge v63.0.0 ('Everything') 64-bit
Writing library                : libebml v1.4.2 + libmatroska v1.6.4

Video
ID                             : 1
Format                         : AVC
Format/Info                    : Advanced Video Codec
Format profile                 : High@L5.2
Format settings                : CABAC / 5 Ref Frames
Format settings, CABAC         : Yes
Format settings, Reference fra : 5 frames
Codec ID                       : V_MPEG4/ISO/AVC
Duration                       : 3 min 39 s
Bit rate                       : 19.7 Mb/s
Width                          : 3 840 pixels
Height                         : 2 160 pixels
Display aspect ratio           : 16:9
Frame rate mode                : Constant
Frame rate                     : 23.976 (24000/1001) FPS
Color space                    : YUV
Chroma subsampling             : 4:2:0
Bit depth                      : 8 bits
Scan type                      : Progressive
Bits/(Pixel*Frame)             : 0.099
Stream size                    : 514 MiB (99%)
Writing library                : x264 core 164 r10 ae03D92
Encoding settings              : cabac=1 / ref=5 / deblock=1:0:0 / analyse=0x3:0x113 / me=hex / subme=8 / psy=1 / psy_rd=1.00:0.00 / mixed_ref=1 / me_range=16 / chroma_me=1 / trellis=2 / 8x8dct=1 / cqm=0 / deadzone=21,11 / fast_pskip=1 / chroma_qp_offset=-2 / threads=48 / lookahead_threads=8 / sliced_threads=0 / nr=0 / decimate=1 / interlaced=0 / bluray_compat=0 / stitchable=1 / constrained_intra=0 / bframes=3 / b_pyramid=2 / b_adapt=2 / b_bias=0 / direct=3 / weightb=1 / open_gop=0 / weightp=2 / keyint=infinite / keyint_min=23 / scenecut=40 / intra_refresh=0 / rc_lookahead=50 / rc=crf / mbtree=1 / crf=20.0 / qcomp=0.60 / qpmin=5 / qpmax=69 / qpstep=4 / vbv_maxrate=24200 / vbv_bufsize=66000 / crf_max=0.0 / nal_hrd=none / filler=0 / ip_ratio=1.40 / aq=1:1.00
Default                        : Yes
Forced                         : No
Color range                    : Limited
Color primaries                : BT.709
Transfer characteristics       : BT.709
Matrix coefficients            : BT.709

Audio
ID                             : 2
Format                         : AAC LC
Format/Info                    : Advanced Audio Codec Low Complexity
Codec ID                       : A_AAC-2
Duration                       : 3 min 39 s
Bit rate                       : 253 kb/s
Channel(s)                     : 2 channels
Channel layout                 : L R
Sampling rate                  : 48.0 kHz
Frame rate                     : 46.875 FPS (1024 SPF)
Compression mode               : Lossy
Delay relative to video        : -83 ms
Stream size                    : 6.62 MiB (1%)
Default                        : Yes
Forced                         : No
下载地址:

****此区域为收费内容****    需支付 15 金币后可查看立即购买







上一篇:[4K国家地理] 鱼湖国家森林 (2021) [2160P/MKV/523MB]
下一篇:[4K国家地理] 放飞自己 (2021) [2160P/MKV/329MB]
回复

使用道具 举报

11

主题

1227

帖子

3665

积分

4K家园VIP

Rank: 9Rank: 9Rank: 9

积分
3665
发表于 2021-12-31 20:52:27 | 显示全部楼层
呵呵,低调,低调!
回复 支持 反对

使用道具 举报

0

主题

7280

帖子

1万

积分

4K家园VIP

Rank: 9Rank: 9Rank: 9

积分
16651
发表于 2021-12-31 21:39:25 | 显示全部楼层
美國仰望美景4k
回复 支持 反对

使用道具 举报

61

主题

1448

帖子

4166

积分

4K家园VIP

Rank: 9Rank: 9Rank: 9

积分
4166
发表于 2022-1-1 23:40:01 | 显示全部楼层
还有没有别的资源,多分享些
回复 支持 反对

使用道具 举报

3

主题

1634

帖子

4470

积分

4K家园VIP

Rank: 9Rank: 9Rank: 9

积分
4470
发表于 2022-1-10 10:09:24 来自手机 | 显示全部楼层
沙发位出租,
回复 支持 反对

使用道具 举报

3

主题

1353

帖子

3905

积分

4K家园VIP

Rank: 9Rank: 9Rank: 9

积分
3905
发表于 2022-1-10 21:05:05 | 显示全部楼层
元芳你怎么看?
回复 支持 反对

使用道具 举报

43

主题

1467

帖子

4209

积分

4K家园VIP

Rank: 9Rank: 9Rank: 9

积分
4209
发表于 5 天前 来自手机 | 显示全部楼层
什么东西啊
回复 支持 反对

使用道具 举报

您需要登录后才可以回帖 登录 | 立即注册

本版积分规则

精彩图文
Archiver|手机版|TAG|Sitemap|新帖|专题|联系我们:邮箱: 4kjia.com@gmail.com   

4k家园   ©2019